BLUE BIRD

EXTREME

Level: 6
BPM: 122
Notes: 399

1
①口口口 |----|
口口口口 |----|
口口口口 |----|
口口口口 |--①-|
2
口①口口 |①---|
口口②③ |②---|
口口④口 |③-④-|
口⑤口口 |⑤---|
3
⑥⑦口口 |①-②③|
③④⑤口 |--④-|
②口口口 |⑤---|
①口口口 |⑥-⑦-|
4
口口①② |①---|
③口口口 |②---|
④口口口 |③---|
口口口口 |--④-|
5
口口口⑥ |①-②③|
口口口口 |--④-|
口①②③ |⑤---|
口口⑤④ |--⑥-|
6
口口①口 |①---|
③②口口 |②---|
口④口口 |③-④-|
口口⑤口 |⑤---|
7
口口⑦⑥ |①-②③|
口⑤④③ |--④-|
口口口② |⑤---|
口口口① |⑥-⑦-|
8
口①口口 |①-②③|
口口③② |--④-|
⑤④口口 |⑤---|
口口口口 |----|
9
⑥口口口 |①-②③|
口口口口 |--④-|
口口②① |⑤---|
④③⑤⑤ |--⑥-|
10
口①②③ |①---|
④口口口 |--②-|
⑤口口口 |③---|
口口口口 |④-⑤-|
11
⑤口⑥口 |①-②-|
口口口口 |③-④-|
口①②③ |----|
口口口④ |⑤-⑥-|
12
口①口② |①-②-|
口口口④ |----|
③口④口 |③---|
口③口口 |④---|
13
①口口口 |①---|
口①口口 |----|
口口口口 |----|
口口口口 |----|
14
口口口口 |①--②|
口口口口 |--③-|
①②③④ |④--⑤|
④⑤⑥口 |--⑥-|
15
①②③④ |①--②|
④⑤⑥口 |--③-|
口⑥口口 |④--⑤|
口口口① |--⑥-|
16
口口口口 |①---|
口口口① |--②-|
①③③口 |③---|
②口口② |----|
17
⑩⑨⑧⑦ |①-②-|
④⑤口口 |③-④⑤|
口口口⑥ |-⑥-⑦|
①②③口 |⑧⑨⑩-|
18
③④④③ |①---|
⑤⑥⑥⑤ |②---|
②①①② |③-④-|
②①①② |⑤-⑥-|
19
口口口口 |①-②-|
口口口口 |③-④-|
①②③口 |⑤-⑥⑦|
⑦⑥⑤④ |----|
20
①②口口 |①-②③|
口口③④ |--④⑤|
口口口⑤
口口口口

口口口口
⑧⑨⑩口
口⑦口口 |⑥-⑦⑧|
口口⑥口 |--⑨⑩|
21
②③④⑤ |①-②③|
口口口① |--④-|
口口口口 |⑤---|
口口口口 |----|
22
④⑤⑥口 |①---|
③口口③ |②---|
②②②② |③-④-|
①口口① |⑤-⑥-|
23
口口口① |①-②-|
口口⑦② |③-④-|
口⑥口③ |⑤-⑥⑦|
口口⑤④ |----|
24
口口口⑧ |①-②③|
①⑥⑦口 |--④-|
⑤口②口 |⑤-⑥⑦|
③口④口 |--⑧-|
25
口口口口 |①-②③|
口口口① |--④-|
口⑤⑤② |⑤---|
口④④③ |----|
26
①⑦口口 |①--②|
口口口⑥ |--③-|
②口口⑤ |④-⑤⑥|
③口口④ |--⑦-|
27
口口口口 |①-②③|
口①⑤口 |--④-|
口②④口 |⑤---|
口口③口 |----|
28
口口口口 |①---|
口口口口 |②---|
口口口口 |③---|
①②③④ |④---|
29
③③口口 |①---|
口②④口 |--②-|
口口①口 |③---|
口口口口 |④---|
30
②④③⑤ |①---|
口口口① |----|
口口口口 |②-③-|
口口口口 |④-⑤-|
31
口口口口 |①-②③|
①⑧口口 |-④⑤⑥|
口②③口 |⑦---|
④⑤⑥⑦ |--⑧-|
32
口口①① |①---|
口口②② |②---|
③④⑤口 |③-④-|
口口口口 |⑤---|
33
口口口口 |①-②③|
口口口口 |--④-|
口口口①
口④③②

口口口口
⑦⑦口口
口口⑥⑥ |⑤---|
⑤口口口 |⑥-⑦-|
34
口②①① |①-②③|
口口③口 |--④-|
口④口口 |⑤---|
口口⑤⑥ |--⑥-|
35
⑥③④④ |①-②③|
⑤⑤②口 |--④-|
口口口① |⑤---|
口口口口 |--⑥-|
36
口①②③ |①---|
④口口口 |--②-|
⑤口口口 |③---|
口口口口 |④-⑤-|
37
⑤⑥口口 |①-②-|
口口口口 |③-④-|
口①②③ |----|
口口口④ |⑤-⑥-|
38
口口①② |①-②-|
③③口口 |----|
口口④④ |③---|
口口口口 |④---|
39
口口口口 |①---|
口口口口 |----|
口口口口 |----|
①①口口 |----|
40
①④口口 |①--②|
②⑤口口 |--③-|
③⑥口口 |④--⑤|
④口口口 |--⑥-|
41
口口①④ |①--②|
口口②⑤ |--③-|
口⑥③⑥ |④--⑤|
口①④口 |--⑥-|
42
口口口口 |①---|
③③③③ |--②-|
①口①口 |③---|
②②②② |----|
43
③②口① |①-②③|
口⑤④口 |-④⑤-|
口口⑦⑥ |⑥⑦-⑧|
⑧⑨⑩⑪ |⑨⑩⑪-|
44
②①①② |①---|
②①①② |②---|
⑤⑥⑥⑤ |③-④-|
③④④③ |⑤-⑥-|
45
⑦⑥⑤④ |①-②-|
①②③口 |③-④-|
口口口口 |⑤-⑥⑦|
口口口口 |----|
46
口口口口 |①-②③|
口口②① |--④-|
口③口口
④口口口

口口口口
口口口⑧
口口口⑦ |⑤-⑥⑦|
口口⑤⑥ |--⑧-|
47
口口①② |①-②③|
口口③口 |--④-|
口④④口 |⑤---|
口⑤⑤口 |----|
48
①①①① |①---|
②口口② |②---|
③③③③ |③-④-|
④⑤⑥口 |⑤-⑥-|
49
口口⑤④ |①-②③|
口⑥口③ |--④-|
口口⑦② |⑤-⑥-|
口口口① |⑦---|
50
⑧口口口 |①-②③|
⑦⑥⑤④ |--④-|
口口口口 |⑤--⑥--⑦-|
①②③口 |--⑧-|
51
口口①② |①-②③|
口③口口 |--④-|
口口④④ |⑤---|
⑤⑤口口 |----|
52
④口口③ |①--②|
⑤口口② |--③-|
⑥口口口 |④-⑤⑥|
口口⑦① |--⑦-|
53
口③口口 |①-②③|
口④②口 |--④-|
口⑤①口 |⑤---|
口口口口 |----|
54
口口口口 |①-②-|
②④③① |③-④-|
⑥⑧⑦⑤ |⑤-⑥-|
口口口口 |⑦-⑧-|
55
口⑧⑦口 |①-②-|
口⑥口口 |③-④-|
口口⑤口 |⑤-⑥-|
②④③① |⑦-⑧-|
56
口⑧⑦口 |①-②-|
口⑥①口 |③-④-|
口②⑤口 |⑤-⑥-|
口④③口 |⑦-⑧-|


不确定度: 0

最終更新:2012年12月03日 19:06