BELIEVE IN LOVE

BASIC

Level: 3
BPM: 178
Notes: 195

1
口口口口 |----|
口口口口 |----|
口口口口 |----|
口口口口 |----|
2
口口口口 |①---|
①②口口 |----|
口口口口 |②---|
口口口口 |----|
3
口口口口 |①---|
口口①口 |----|
口口②③ |②---|
口口口口 |③---|
4
口口口口 |①---|
口口②① |----|
口口口口 |②---|
口口口口 |----|
5
口口口口 |①---|
口①口口 |----|
口②③口 |②---|
口口口口 |③---|
6
口②口口 |①---|
口口①口 |----|
口口口口 |②---|
口口口口 |----|
7
口口①口 |①---|
口口②口 |----|
口口口口 |②---|
口口口口 |----|
8
口口口口 |①---|
口口口口 |----|
口①口口 |②---|
口②口口 |----|
9
口口口口 |①---|
口口②口 |----|
口口①口 |②---|
口口口口 |----|
10
口②①口 |①---|
口③口口 |②---|
口口口口 |③---|
口口口口 |----|
11
口口口口 |①---|
口口口口 |----|
口口①口 |②---|
口②②口 |----|
12
口口口口 |①---|
口口口口 |----|
口①①口 |----|
口口口口 |----|
13
口口口口 |----|
口口口口 |----|
口口口口 |----|
口口口口 |----|
14
①②口口 |①---|
口口口口 |----|
口口口口 |②---|
口口口口 |----|
15
口口①口 |①---|
口口②口 |②---|
口口③④ |③---|
口口口口 |④---|
16
口口口口 |①---|
口口口口 |----|
口口口口 |②---|
口口②① |----|
17
口④口口 |①---|
口③口口 |②---|
口②口口 |③---|
口①口口 |④---|
18
①口口口 |①---|
②口口口 |----|
口口口口 |②---|
口口口口 |----|
19
口口口口 |①---|
口口口口 |②---|
①②③口 |③---|
口口④口 |④---|
20
口口口口 |①---|
口口口口 |----|
口口口口 |----|
口口口① |----|
21
口口口口 |----|
口口口口 |----|
口口口口 |----|
口口口口 |----|
22
①口口口 |①---|
口口口口 |----|
口口口口 |----|
口口口口 |----|
23
口口口① |①---|
口口口口 |----|
口口口口 |----|
口口口口 |----|
24
口口口口 |----|
①②③口 |①---|
口口口口 |②---|
口口口口 |③---|
25
口口口口 |①---|
口口口① |----|
口②②口 |②---|
口口口口 |----|
26
口口口口 |①---|
口口口口 |----|
口②②口 |----|
口①①口 |②---|
27
②口口② |①---|
口①①口 |----|
口口口口 |----|
口口口口 |②---|
28
口①①口 |①---|
口口口口 |----|
口口口口 |----|
口口口口 |----|
29
口口口口 |----|
口口口口 |----|
口口口口 |----|
口口口口 |----|
30
口口口① |①---|
口口口口 |----|
口口口口 |----|
口口口口 |----|
31
①口口口 |①---|
口口口口 |----|
口口口口 |----|
口口口口 |----|
32
口口口口 |----|
口③②① |①---|
口口口口 |②---|
口口口口 |③---|
33
口口口口 |①---|
①口口口 |----|
口②②口 |②---|
口口口口 |----|
34
口口口口 |①---|
口口口口 |----|
口②②口 |----|
口①①口 |②---|
35
②口口② |①---|
口①①口 |----|
口口口口 |----|
口口口口 |②---|
36
口①①口 |①---|
②口口② |----|
口口口口 |----|
口口口口 |②---|
37
口口口口 |①---|
口①①口 |----|
口②②口 |②---|
口口口口 |----|
38
口口口口 |①---|
口口口口 |----|
①②口口 |②---|
口口口口 |----|
39
口口口口 |①---|
口口口口 |----|
口口①② |②---|
口口口口 |----|
40
口口口口 |①---|
口口②① |----|
口口口口 |②---|
口口口口 |----|
41
口口口口 |①---|
②①口口 |----|
口口口口 |②---|
口口口口 |----|
42
口①①口 |①---|
②口口② |----|
口口口口 |②---|
口口口口 |----|
43
口口口口 |①---|
口①①口 |----|
②口口② |②---|
口口口口 |----|
44
口口口口 |①---|
口口口口 |----|
口①①口 |②---|
②口口② |----|
45
口口口口 |①---|
口口③口 |----|
口口②口 |②---|
口①①口 |③---|
46
口②①口 |①---|
口③口口 |②---|
口④口口 |③---|
口口口口 |④---|
47
口口口口 |①---|
口口口口 |----|
口口口口 |----|
口①①口 |----|
48
口口口口 |①---|
口口口口 |----|
口口口口 |②---|
②口口① |----|
49
口口口口 |--①-|
③口口③ |--②-|
②口口② |--③-|
口①①口 |----|
50
口口口口 |①---|
口②②口 |----|
口①①口 |②---|
口口口口 |----|
51
口口口① |①---|
口口口② |----|
口口口口 |②---|
口口口口 |----|
52
口口口口 |①---|
口口口口 |----|
口口口① |②---|
口口口② |----|
53
口④口口 |①---|
口③口口 |②---|
口②口口 |③---|
口①口口 |④---|
54
口口①口 |①---|
口口②口 |②---|
口口③口 |③---|
口口④口 |④---|
55
口口口口 |①---|
口口口口 |----|
①①口口 |----|
口口口口 |----|
56
口口口口 |①---|
①①口口 |----|
口口口口 |----|
口口口口 |----|
57
口口口口 |①---|
口口口口 |②---|
①②③④ |③---|
口口口口 |④---|
58
口口口口 |①---|
口①①口 |----|
口②②口 |②---|
口口口口 |----|
59
④口口口 |①---|
③口口口 |②---|
②口口口 |③---|
①口口口 |④---|
60
口①②口 |①---|
口口口口 |----|
口口口口 |②---|
口口口口 |----|
61
口口口口 |①---|
口口①口 |②---|
口口②口 |③---|
口④③口 |④---|
62
口③口口 |①---|
口②口口 |②---|
口①口口 |③---|
口口口口 |----|
63
口口口口 |①---|
口口①① |----|
口口口口 |----|
口口口口 |----|
64
口口口口 |①---|
口口口口 |----|
口口①① |----|
口口口口 |----|
65
口口口口 |①---|
口口口口 |----|
口①②口 |②---|
口口口口 |----|
66
口口口口 |①---|
①口口① |----|
口口口口 |----|
口口口口 |----|
67
口口口口 |----|
口口口口 |----|
口口口口 |----|
口口口口 |----|
68
①②口口 |①---|
口口口口 |----|
口口口口 |②---|
口口口口 |----|
69
口口①口 |①---|
口口②口 |②---|
口口③④ |③---|
口口口口 |④---|
70
口口口口 |①---|
口口口口 |----|
口口口口 |②---|
口口②① |----|
71
口④口口 |①---|
口③口口 |②---|
口②口口 |③---|
口①口口 |④---|
72
①口口口 |①---|
②口口口 |----|
口口口口 |②---|
口口口口 |----|
73
口口口口 |①---|
口口口口 |②---|
①②③口 |③---|
口口④口 |④---|
74
口口口口 |①---|
口口口口 |----|
口口口口 |----|
口口口① |----|
75
口口口口 |----|
口口口口 |----|
口口口口 |----|
口口口口 |----|
76
口口口口 |①---|
口口口口 |----|
口①①口 |----|
口口口口 |----|


不确定度: 0

最終更新:2012年12月03日 19:05