BELIEVE IN LOVE

ADVANCED

Level: 4
BPM: 178
Notes: 328

1
口口口口 |----|
口口口口 |----|
口口口口 |----|
口口口口 |----|
2
口①口口 |①---|
口②口口 |②---|
口③口口 |③---|
口④口口 |④---|
3
口口①口 |①---|
口口②口 |②---|
口口③③ |③---|
口口④④ |④---|
4
口口①口 |①---|
口口②口 |②---|
口口③口 |③---|
口口④口 |④---|
5
口①口口 |①---|
口②口口 |②---|
③③口口 |③---|
④④口口 |④---|
6
口口口口 |①---|
口口②② |----|
口口①① |②---|
口口口口 |----|
7
④③②① |①---|
口口口口 |②---|
口口口口 |③---|
口口口口 |④---|
8
口口口口 |①---|
口①①口 |----|
口口②口 |②---|
口口口③ |③---|
9
口口口口 |①---|
口口口口 |②---|
口④口口 |③---|
③②①口 |④---|
10
口④③② |①---|
口口①① |②---|
口口口口 |③---|
口口口口 |④---|
11
①口口口 |①---|
口②口口 |--②-|
口口③③ |----|
口口口口 |③---|
12
口口口口 |①---|
口口口口 |----|
口口口口 |----|
①①①① |----|
13
口口口口 |----|
口口②口 |----|
口①口口 |①---|
口口口口 |②---|
14
①②②① |①---|
③④④③ |②---|
口口口口 |③---|
口口口口 |④---|
15
口口口口 |①---|
口口口口 |②---|
①②②① |③---|
③④④③ |④---|
16
口口口口 |①---|
④①①④ |②---|
②③③② |③---|
口口口口 |④---|
17
②③③② |①---|
口①①口 |②---|
口④④口 |③---|
口口口口 |④---|
18
口口口口 |①---|
③④④③ |②---|
口口口口 |③---|
①②②① |④---|
19
③④④③ |①---|
口口口口 |②---|
①②②① |③---|
口口口口 |④---|
20
口口口口 |①---|
口①①口 |②---|
口口口② |----|
口③③口 |③---|
21
口口口口 |----|
口口口口 |①---|
①口口口 |----|
口②②口 |②---|
22
口口口口 |①---|
口③④口 |②---|
口②①口 |③---|
口口口口 |④---|
23
口口①口 |①---|
口口口口 |----|
口口口口 |----|
口口口口 |----|
24
口①口口 |①---|
口②③口 |②---|
口口④口 |③---|
口口口口 |④---|
25
口口口口 |①---|
口口口口 |②---|
口①④口 |③---|
口②③口 |④---|
26
口口口② |①---|
口口①① |----|
口口口口 |----|
口口口口 |②---|
27
②②①口 |①---|
口口口口 |----|
口口口口 |----|
口口口口 |②---|
28
口口口口 |①---|
①①口口 |----|
口口口口 |----|
口口口口 |----|
29
口口口口 |----|
口口口口 |----|
口口口口 |----|
口口口口 |----|
30
口口口口 |①---|
口④③口 |②---|
口①②口 |③---|
口口口口 |④---|
31
口①口口 |①---|
口口口口 |----|
口口口口 |----|
口口口口 |----|
32
口口①口 |----|
口③②口 |①---|
口口口口 |②---|
口口口口 |③---|
33
口口口口 |①---|
口口口口 |②---|
口①②口 |③---|
口④③口 |④---|
34
口口口口 |①---|
②口口口 |----|
口①口口 |----|
口口口口 |②---|
35
②口口口 |①---|
口①口口 |----|
口口口口 |----|
口口口口 |②---|
36
口①②② |①---|
口口口口 |----|
口口口口 |----|
口口口口 |②---|
37
口口口口 |①---|
口口①① |----|
口口口口 |②---|
口口②② |----|
38
口口口口 |①---|
口口口口 |②---|
④③②① |③---|
口口口口 |④---|
39
②口口② |①---|
①口口① |----|
口口口口 |②---|
口口口口 |----|
40
口口①口 |----|
口口③口 |①---|
口口②口 |②---|
口口口口 |③---|
41
口口口口 |①---|
口③口口 |②---|
口④口口 |③---|
口②①口 |④---|
42
口①②口 |①---|
口口口口 |②---|
口口③口 |③---|
口口口口 |----|
43
口口口口 |①---|
口口①口 |----|
口口口口 |②---|
口口②口 |----|
44
口口口口 |①---|
口②③口 |----|
口口口口 |②---|
口①口口 |③---|
45
②①①③ |①---|
口口口口 |----|
口口口口 |②---|
口口口口 |③---|
46
口口口口 |①---|
①口口② |②---|
③口口④ |③---|
口口口口 |④---|
47
口口口口 |①---|
口口口口 |----|
口口口口 |----|
①口口① |----|
48
口④④口 |①---|
口③③口 |②---|
口②②口 |③---|
口①①口 |④---|
49
③口口③ |--①-|
②口口② |--②-|
①口口① |--③-|
口口口口 |----|
50
口口口口 |①---|
口①①口 |----|
口②②口 |②---|
口口口口 |----|
51
口口口口 |①---|
口口口口 |②---|
口口口口 |③---|
①②③④ |④---|
52
③口口口 |①---|
②口口口 |----|
口①①口 |②---|
口口口口 |③---|
53
口①②③ |①---|
口口④口 |②---|
口口口口 |③---|
口口口口 |④---|
54
口口口口 |①---|
口口口口 |②---|
①①口口 |③---|
②③④口 |④---|
55
口口口口 |①---|
③③口口 |--②-|
口口②口 |----|
口口口① |③---|
56
①①①① |①---|
口口口口 |----|
口口口口 |----|
口口口口 |----|
57
口口口口 |①---|
口口②① |②---|
③④口口 |③---|
口口口口 |④---|
58
口①①口 |①---|
口口口口 |----|
口口口口 |②---|
口②②口 |----|
59
口口口口 |①---|
①②口口 |②---|
口口③④ |③---|
口口口口 |④---|
60
口口口口 |①---|
③口口口 |----|
②口口口 |②---|
口①①口 |③---|
61
口口②③ |①---|
口①④口 |②---|
口口口口 |③---|
口口口口 |④---|
62
口口口口 |①---|
口口口口 |②---|
①①口口 |③---|
②③④口 |④---|
63
口口口口 |①---|
③③口口 |--②-|
口口②口 |----|
口口口① |③---|
64
①①①① |①---|
口口口口 |----|
口口口口 |----|
口口口口 |----|
65
口口口口 |①---|
①口口④ |②---|
口③②口 |③---|
口口口口 |④---|
66
①①①① |①---|
②口口③ |----|
口口口口 |②---|
口口口口 |③---|
67
口口口口 |①---|
口③口口 |②---|
①口④② |③---|
口口口口 |④---|
68
口口口口 |①---|
口口口口 |②---|
③④④③ |③---|
①②②① |④---|
69
③④④③ |①---|
①②②① |②---|
口口口口 |③---|
口口口口 |④---|
70
口口口口 |①---|
②③③② |②---|
④①①④ |③---|
口口口口 |④---|
71
口口口口 |①---|
口④④口 |②---|
口①①口 |③---|
②③③② |④---|
72
①②②① |①---|
口口口口 |②---|
③④④③ |③---|
口口口口 |④---|
73
口口口口 |①---|
①②②① |②---|
口口口口 |③---|
③④④③ |④---|
74
口口口口 |①---|
口口口口 |----|
口①①口 |----|
口口口口 |----|
75
口口口口 |----|
口口口口 |----|
口口口口 |----|
口口口口 |----|
76
口口口口 |①---|
①口口① |----|
①口口① |----|
口口口口 |----|


不确定度: 0

最終更新:2012年12月03日 19:05