BELIEVE IN LOVE

EXTREME

Level: 6
BPM: 178
Notes: 440

1
口口口口 |----|
口口口口 |----|
口口口口 |----|
口口口口 |----|
2
口④口口 |①-②-|
③⑤口口 |③-④-|
②⑥⑧口 |⑤-⑥-|
①口⑦口 |⑦-⑧-|
3
口口口② |①-②-|
口口①③ |③-④-|
口口口④ |⑤-⑥-|
口⑦⑥⑤ |⑦---|
4
①②③口 |①-②-|
口⑥⑤④ |③-④-|
⑦⑧口口 |⑤-⑥-|
口口口口 |⑦-⑧-|
5
口口口⑧ |①-②-|
⑦口口口 |③-④-|
⑥口①口 |⑤-⑥-|
⑤④③② |⑦-⑧-|
6
②③①口 |①---|
口口口口 |--②-|
口口口口 |③---|
口口口口 |----|
7
口口口口 |①---|
口口②① |②---|
③④口口 |③---|
口口口口 |④---|
8
口口口口 |①---|
口口口口 |--②-|
口口①口 |③---|
④④③② |④---|
9
③③口口 |①---|
①①④④ |②---|
②②口口 |③---|
口口口口 |④---|
10
口口②① |①---|
③④口口 |②---|
口口口口 |③---|
口口口口 |④---|
11
口口口口 |①---|
口口口口 |--②-|
②③③① |----|
口口口口 |③---|
12
口口口口 |①---|
口口口口 |----|
口口口口 |----|
①①①① |----|
13
③口口③ |----|
②口口② |----|
①口口① |①-②-|
口口口口 |③---|
14
口①①口 |①---|
口③②口 |②-③-|
口④⑤口 |④-⑤-|
口⑦⑥口 |⑥-⑦-|
15
口口口口 |--①-|
⑥⑥⑥⑥ |②-③-|
④⑤⑤③ |④-⑤-|
②口口① |⑥---|
16
①①①① |①---|
口⑥⑦口 |②-③-|
口⑤④口 |④-⑤-|
口②③口 |⑥-⑦-|
17
①口口② |--①-|
③口口④ |②-③-|
⑤口口⑥ |④-⑤-|
口口口口 |⑥---|
18
口①①口 |①---|
口③②口 |②-③-|
口④⑤口 |④-⑤-|
口⑦⑥口 |⑥-⑦-|
19
口口口口 |--①-|
⑥⑥⑥⑥ |②-③-|
④⑤⑤③ |④-⑤-|
②口口① |⑥---|
20
①①①① |①---|
口口口口 |②--③----|
口口④④ |----|
②③口口 |④---|
21
口口口口 |----|
口口口口 |①-②-|
③③口口 |----|
口口②① |③---|
22
②⑤⑤④ |①---|
口①③口 |②---|
口口口口 |③---|
口口口口 |④-⑤-|
23
口口口口 |----|
口口口口 |----|
口口口口 |----|
口口口口 |----|
24
①口口口 |----|
口②③口 |①---|
口口口④ |②-③-|
口口口口 |--④-|
25
口口口口 |----|
口口口① |①---|
口②②口 |②---|
口③③口 |③---|
26
口②口口 |①---|
口口②口 |----|
①口口① |----|
口口口口 |②---|
27
口口①口 |①---|
②①口② |----|
口口口口 |----|
口口口口 |②---|
28
①口口① |①---|
口口口口 |----|
口口口口 |----|
口口口口 |----|
29
口口口口 |①-②-|
口口口口 |③-④-|
①③④② |⑤-⑥-|
⑤⑦⑧⑥ |⑦-⑧-|
30
④口口① |①---|
口⑤⑤口 |②---|
口②③口 |③---|
口口口口 |④-⑤-|
31
口口口口 |----|
口口口口 |----|
口口口口 |----|
口口口口 |----|
32
口口口口 |----|
④口口口 |①---|
口③②口 |②-③-|
口口口① |--④-|
33
口③③口 |----|
口②②口 |①---|
①口口口 |②---|
口口口口 |③---|
34
口口口口 |①---|
①口口① |----|
口②口口 |----|
口口②口 |②---|
35
口口口口 |①---|
口口口口 |----|
②口①② |----|
口①口口 |②---|
36
口口口口 |①---|
口②②口 |----|
口②②口 |----|
①口口① |②---|
37
口口口口 |①-②-|
④口口④ |--③-|
③口口③ |④---|
①②②① |----|
38
①①②② |①---|
③③③③ |②---|
口口口口 |③---|
口口口口 |----|
39
口口口口 |①---|
口口口口 |②---|
①②③④ |③---|
口口口口 |④---|
40
⑤⑤口口 |①---|
口④口口 |②---|
③口口口 |③-④-|
②②口① |--⑤-|
41
口口①② |----|
口口口口 |①---|
口口口③ |②---|
口口口口 |③---|
42
口口口口 |①-②-|
口口口① |--③-|
口口口口 |----|
口口③② |----|
43
口口口口 |①-②-|
①口口口 |--③-|
口口口口 |----|
②③口口 |----|
44
口口口口 |①-②-|
④③③④ |--③-|
②①①② |----|
口口口口 |④---|
45
①②②① |①---|
口口口口 |----|
口③③口 |②---|
口口口口 |③---|
46
⑤口口⑤ |①---|
口①①口 |②---|
④口口④ |③-④-|
③②②③ |--⑤-|
47
口口口口 |----|
口口口口 |----|
口口口口 |----|
口口口口 |----|
48
口口①口 |①-②-|
口口②口 |③---|
④④③口 |④---|
⑤⑤口口 |⑤---|
49
口口口③ |--①-|
口口③② |--②-|
④口②① |--③-|
④口①口 |--④-|
50
口口口口 |①---|
口口口口 |--②-|
口①③② |③---|
口①③② |----|
51
口口口口 |①---|
①②口口 |②---|
口口④③ |③---|
口口口口 |④---|
52
口口口口 |①---|
口口口口 |--②-|
口①口口 |③---|
②③④④ |④---|
53
口口③③ |①---|
④④①① |②---|
口口②② |③---|
口口口口 |④---|
54
①②口口 |①---|
口口④③ |②---|
口口口口 |③---|
口口口口 |④---|
55
口口口口 |①---|
口口口口 |--②-|
①③③② |----|
口口口口 |③---|
56
④⑤口口 |①-②-|
③⑥口口 |③-④-|
②⑦⑧口 |⑤-⑥-|
①①①① |⑦-⑧-|
57
⑤口②② |①---|
⑤口①① |②---|
口口④③ |③---|
口口③④ |④-⑤-|
58
口①③② |①---|
口①③② |--②-|
口口口口 |③---|
口口口口 |----|
59
口口口口 |①---|
口口④③ |②---|
①②口口 |③---|
口口口口 |④---|
60
②③④④ |①---|
口①口口 |--②-|
口口口口 |③---|
口口口口 |④---|
61
口口口口 |①---|
口口②② |②---|
④④①① |③---|
口口③③ |④---|
62
口口口口 |①---|
口口口口 |②---|
口口④③ |③---|
①②口口 |④---|
63
口口口口 |①---|
①③③② |--②-|
口口口口 |----|
口口口口 |③---|
64
①①①① |①-②-|
②⑦⑧口 |③-④-|
③⑥口口 |⑤-⑥-|
④⑤口口 |⑦-⑧-|
65
口口③④ |①---|
口口④③ |②---|
口口①① |③---|
口口②② |④---|
66
口口口口 |①---|
口口口口 |----|
①①①① |②---|
②口口口 |----|
67
口口口口 |①---|
口口口口 |----|
口口口口 |②---|
口②②① |----|
68
口①①口 |①---|
口③②口 |②-③-|
口④⑤口 |④-⑤-|
口⑦⑥口 |⑥-⑦-|
69
口口口口 |--①-|
⑥⑥⑥⑥ |②-③-|
④⑤⑤③ |④-⑤-|
②口口① |⑥---|
70
①①①① |①---|
口⑥⑦口 |②-③-|
口⑤④口 |④-⑤-|
口②③口 |⑥-⑦-|
71
①口口② |--①-|
③口口④ |②-③-|
⑤口口⑥ |④-⑤-|
口口口口 |⑥---|
72
口①①口 |①---|
口③②口 |②-③-|
口④⑤口 |④-⑤-|
口⑦⑥口 |⑥-⑦-|
73
口口口口 |--①-|
⑥⑥⑥⑥ |②-③-|
④⑤⑤③ |④-⑤-|
②口口① |⑥---|
74
①①①① |①---|
口口口口 |----|
口口口口 |----|
口口口口 |----|
75
口口口口 |----|
口口口口 |----|
口口口口 |----|
口口口口 |----|
76
口口口口 |①---|
口①①口 |----|
口①①口 |----|
口口口口 |----|


不确定度: 0

最終更新:2012年12月03日 19:05