我が麗しのバレンシア
劇団レコード feat. Mille Face

ADVANCED

Level: 5
BPM: 130-150
Notes: 363

BPM: 130
1
口口口口 |----|
口口口口 |----|
口口口口 |----|
口口口口 |----|
2
口口口口 |----|
口口口口 |①---|
口口口口
口①口口

口口口口
口②③口
口口口口 |②-③-|
口④④口 |--④-|
3
口口口口 |----|
①口口② |①-②-|
④口口④ |--③-|
口③③口 |--④-|
4
口口口口 |----|
④①②④ |①-②-|
口口口口 |--③-|
口③③口 |--④-|
5
口①口口 |----|
口口②口 |----|
口③口口 |--①-|
口口口口 |②-③-|
6
口口口口 |①---|
⑤②③⑤ |②-③-|
④口口④ |--④-|
口①①口 |--⑤-|
7
口口口口 |----|
口③口口 |----|
口口②口 |--①-|
口①口口 |②-③-|
8
口①①口 |①---|
口口②口 |②-③-|
③口口口
口口口口

口口口口
口⑤⑤口
口口口口 |--④-|
口④④口 |--⑤-|
9
口口口口 |----|
口口口口 |----|
口口口口 |----|
口口口口 |----|
10
口口口口 |①---|
口口口口 |----|
口①①口 |----|
口口口口

BPM: 150
口口口口
口口口口
口②③口
口口口口 |②-③-|
11
口③④口 |①---|
②①①⑤ |----|
口口口口 |②-③-|
口口口口 |④-⑤-|
12
口口口口 |①---|
口①②口 |----|
口②①口 |②---|
口③④口 |③-④-|
13
口④③口 |①---|
⑤口口② |----|
①口口① |②-③-|
口口口口 |④-⑤-|
14
口口口口 |①---|
口②①口 |----|
口①②口 |②---|
口③④口 |③-④-|
15
口④③口 |①---|
②口①⑤ |----|
口①口口 |②-③-|
口口口口 |④-⑤-|
16
口口口口 |①---|
口①②口 |----|
口②①口 |②---|
口③④口 |③-④-|
17
口④⑤口 |①---|
②口口③ |----|
①口口① |②-③-|
口口口口 |④-⑤-|
18
口口口口 |①---|
口口口口 |----|
口①①口
口口口口

口口口口
口⑤口口
③④口③ |②-③-|
②口口② |④-⑤-|
19
①③④① |①---|
②口口⑤ |----|
口口口口 |②-③-|
口口口口 |④-⑤-|
20
口口口口 |①---|
口①②口 |----|
口口口口 |②---|
②③④① |③-④-|
21
口④③口 |①---|
⑤口口② |----|
①口口① |②-③-|
口口口口 |④-⑤-|
22
口口口口 |①---|
口②①口 |----|
口口口口 |②---|
①③④② |③-④-|
23
口④③口 |①---|
②口①⑤ |----|
口①口口 |②-③-|
口口口口 |④-⑤-|
24
口口口口 |①---|
③①②④ |----|
口口口口 |②---|
②口口① |③-④-|
25
口④⑤口 |①---|
②口口③ |----|
口①①口 |②-③-|
口口口口 |④-⑤-|
26
口口口口 |①---|
口①口口 |----|
口口①口
口口口口

口口口口
③④口口
口口口口 |②---|
口②②口 |--③④|
27
口口口③ |①---|
口口①口 |--②-|
口口口② |③---|
④口口口 |④---|
28
口口口口 |①---|
①①③② |----|
口口口口 |----|
口口口口 |--②③|
29
口③口口 |①---|
口①口口 |--②-|
②④口口 |③--④|
口口⑤口 |--⑤-|
30
口口口口 |①---|
②③①① |----|
口口口口 |----|
口口口口 |--②③|
31
口口口③ |①---|
口口①口 |--②-|
口口⑤② |③---|
④口口口 |④-⑤-|
32
口口口口 |①---|
①①口口 |----|
口口口口
口口口口

口口口口
③④口②
②口④③ |--②-|
口口口口 |③-④-|
33
口口口口 |①---|
口口①口 |----|
口①口口
口口口口

口③口口
②口④②
口口口口 |--②-|
口口口口 |--③④|
34
口口口口 |①---|
②③口口 |----|
口①口口 |----|
口口口口 |--②③|
35
口口口③ |①---|
口口①口 |--②-|
口口口② |③---|
④口口口 |④---|
36
口口口口 |①---|
①①⑤④ |②---|
口口②口 |③---|
口③口口 |--④⑤|
37
口③口口 |①---|
口①口口 |--②-|
②口⑤口 |③--④|
口④口口 |--⑤-|
38
口口口口 |①---|
口①①口 |②---|
口②口口
口口口口

口口口口
④⑤口口
口口口口 |③---|
口口③口 |--④⑤|
39
口口口③ |①---|
口口①口 |--②-|
口口口② |③---|
④口口口 |④---|
40
口口口口 |①---|
①①口口 |②---|
口口②口
口口口口

口口口口
口⑤④④
口口口口 |③-④-|
口③口口 |--⑤-|
41
口口口口 |①---|
口③②口 |----|
①②③① |②---|
口口口口 |③---|
42
口口③口 |①-②-|
④口口口 |③-④-|
②口口口
①口口①

口口口口
口口⑧⑤
⑦⑥口口 |⑤-⑥-|
口口口口 |--⑦⑧|
43
口口口口 |①---|
④④口口 |②---|
口口③③ |③---|
②②①口 |④---|
44
口口①① |①---|
口口⑥⑤ |--②③|
②③④口 |④---|
口口口口 |--⑤⑥|
45
口口口口 |①---|
口①口口 |--②③|
②③口口
口口口口

⑥口⑤口
口⑦口口
口口④口 |④-⑤-|
口口口口 |⑥-⑦-|
46
口口口① |①---|
口口口① |--②③|
②③口口
口口口口

口口口口
口口⑥⑤
口口④口 |④---|
口口口口 |--⑤⑥|
47
口⑥口⑤ |①---|
⑦①口口 |--②③|
②③口④ |④-⑤-|
口口口口 |⑥-⑦-|
48
②口口③ |①---|
口口口口 |--②-|
口口口口 |③---|
口①①口 |----|
49
口口②口 |----|
口①口口 |①---|
③口①④ |②--③|
口口口口 |--④-|
50
口①④口 |①②③-|
⑨②⑤⑨ |--④⑤|
口③⑥口 |⑥---|
口⑦⑧口 |⑦⑧⑨-|
51
口口口口 |----|
口口口口 |----|
口口口口 |----|
口口口口 |----|
52
口口口口 |----|
口口③口 |①---|
口口②口 |②-③-|
①④④口 |--④-|
53
口口口② |----|
④口口④ |①-②-|
口口口① |--③-|
口③口口 |--④-|
54
口①②口 |----|
口③④口 |①-②-|
口④③口 |--③-|
口口口口 |--④-|
55
口口①口 |----|
口②口③ |----|
口口口口 |--①-|
口口口口 |②-③-|
56
⑤②③⑤ |①---|
口口口口 |②-③-|
④①①④ |--④-|
口口口口 |--⑤-|
57
口口口口 |----|
口口口口 |----|
①口③口 |--①-|
口②口口 |②-③-|
58
⑤口口⑤ |①---|
③②口③ |②-③-|
口口口口 |--④-|
①④④① |--⑤-|
59
口口口口 |----|
口口口口 |----|
口口口口 |----|
口口口口 |----|
60
口口口口 |----|
口口③口 |①---|
口口②口 |②-③-|
①④④口 |--④-|
61
口口口② |----|
④口口④ |①-②-|
口口口① |--③-|
口③③口 |--④-|
62
①①②② |----|
③口口④ |①-②-|
口④③口 |--③-|
口口口口 |--④-|
63
口口①口 |----|
口②口③ |----|
口口口口 |--①-|
口口口口 |②-③-|
64
口②③口 |①---|
⑤口口⑤ |②-③-|
④①①④ |--④-|
口口口口 |--⑤-|
65
口口口口 |----|
口口口口 |----|
①口③口 |--①-|
口②口口 |②-③-|
66
口②③口 |①---|
①⑤⑤① |②-③-|
口口口口 |--④-|
④口口④ |--⑤-|
67
口口口口 |----|
口口口口 |----|
口①①口 |----|
口口口口 |--①-|


不确定度: 0

最終更新:2012年11月27日 22:21