PRANA
TAG

BASIC

Level: 5
BPM: 188
Notes: 319

1
口口口口 |----|
口口口口 |----|
口口口口 |----|
口口口口 |----|
2
口口口口 |①---|
①②③口 |--②-|
口口口口 |----|
口口口口 |③---|
3
②口口③ |--①-|
口口口① |----|
口口口口 |②---|
口口口口 |③---|
4
口口口口 |①---|
口口口口 |--②-|
①②③口 |----|
口口口口 |③---|
5
②口口③ |--①-|
口口口口 |----|
口口口① |②---|
口口口口 |③---|
6
口口口口 |①---|
口口口口 |--②-|
口口口口 |----|
①②③口 |③---|
7
②口口③ |--①-|
口口口口 |----|
口口口口 |②---|
口口口① |③---|
8
口口口口 |①---|
口③③口 |--②-|
口②②口 |----|
口①①口 |③---|
9
口口口口 |----|
口口口口 |----|
口口口口 |----|
口口口口 |----|
10
口口口② |①---|
①口口③ |--②-|
口口口④ |--③-|
口口口口 |--④-|
11
口口口口 |--①-|
口②③口 |----|
口口口口 |②---|
口口口① |③---|
12
口口口② |①---|
①口口③ |--②-|
口口口④ |--③-|
口口口口 |--④-|
13
口口口口 |--①-|
口③②口 |----|
口口口口 |②---|
口口口① |③---|
14
口口口② |①---|
①口口③ |--②-|
口口口④ |--③-|
口口口口 |--④-|
15
口口口口 |--①-|
口②③口 |----|
口口口口 |②---|
口口口① |③---|
16
②口口③ |①---|
④口口口 |--②-|
口口口口 |--③-|
口①①口 |--④-|
17
口口口口 |--①-|
口口口① |--②-|
②口口③ |--③-|
口口口口 |----|
18
口口口② |①---|
①口口③ |--②-|
口口口④ |--③-|
口口口口 |--④-|
19
口口口口 |--①-|
口②③口 |----|
口口口口 |②---|
口口口① |③---|
20
口口口② |①---|
①口口③ |--②-|
口口口④ |--③-|
口口口口 |--④-|
21
口口口口 |--①-|
口③②口 |----|
口口口口 |②---|
口口口① |③---|
22
口口口② |①---|
①口口③ |--②-|
口口口④ |--③-|
口口口口 |--④-|
23
口口口口 |--①-|
口②③口 |----|
口口口口 |②---|
口口口① |③---|
24
②口口③ |①---|
④口口口 |--②-|
口口口口 |--③-|
口①①口 |--④-|
25
口口口口 |--①-|
口口口① |--②-|
②口口③ |--③-|
口口口口 |----|
26
口口口口 |①---|
口①②口 |②---|
口③④口 |③---|
口口口口 |④---|
27
①口口② |①---|
③口口口 |--②-|
口口口口 |----|
口口口口 |③---|
28
口口口口 |①---|
口①②口 |②---|
口③④口 |③---|
口口口口 |④---|
29
①口口② |①---|
③口口口 |--②-|
口口口口 |----|
口口口口 |③---|
30
口口口口 |①---|
口①②口 |②---|
口③④口 |③---|
口口口口 |④---|
31
①口口② |①---|
③口口口 |--②-|
口口口口 |----|
口口口口 |③---|
32
口口口口 |--①-|
口口口① |----|
②口口③ |②---|
口口口口 |--③-|
33
口口口口 |----|
口口口口 |①---|
口口口口 |--②-|
①口口② |----|
34
口口口口 |①---|
口口口口 |----|
①①①① |----|
口口口口 |----|
35
口口口口 |①---|
①①①① |----|
口口口口 |----|
口口口口 |----|
36
口口口口 |①---|
口口口口 |----|
①①①① |----|
口口口口 |----|
37
①①①① |①---|
口口口口 |----|
口口口口 |----|
口口口口 |----|
38
口口口口 |①---|
口口口口 |----|
①①①① |----|
口口口口 |----|
39
口口口口 |①---|
①①①① |----|
口口口口 |----|
口口口口 |----|
40
口口口口 |①---|
口口口口 |----|
①①①① |----|
口口口口 |----|
41
④③②① |--①-|
⑤口口口 |-②--|
口口口口 |③--④|
口口口口 |--⑤-|
42
口口口口 |①---|
口口口口 |----|
口①①口 |----|
口口口口 |----|
43
口口口口 |①---|
口①①口 |----|
口口口口 |----|
口口口口 |----|
44
口口口口 |①---|
口口口口 |----|
口①①口 |----|
口口口口 |----|
45
口口口口 |①---|
口①①口 |----|
口口口口 |----|
口口口口 |----|
46
口口口口 |①---|
①口口② |②---|
③口口④ |③---|
口口口口 |④---|
47
口口口口 |①---|
①口口② |②---|
③口口④ |③---|
口口口口 |④---|
48
口口口口 |①---|
①口口② |②---|
③口口④ |③---|
口口口口 |④---|
49
口口口口 |①---|
①口口② |②---|
③口口④ |③---|
口口口口 |④---|
50
②口口口 |①---|
口①①口 |--②-|
口①①口
口口口口

口口口③
口④口口
口口口口 |--③-|
口口口口 |--④-|
51
口口口口 |①---|
口口①口 |----|
口口口口 |----|
口口口口 |----|
52
口口口② |①---|
口①①口 |--②-|
口①①口
口口口口

③口口口
口④口口
口口口口 |--③-|
口口口口 |--④-|
53
口口口口 |①---|
口口①口 |----|
口口口口 |----|
口口口口 |----|
54
②口口③ |①---|
④①①口 |--②-|
口①①口 |--③-|
口口口口 |--④-|
55
②口口③ |①---|
④①①口 |--②-|
口①①口 |--③-|
口口口口 |--④-|
56
⑤②②⑤ |①---|
口④④口 |②---|
口①①口 |③---|
口③③口 |④-⑤-|
57
口口口口 |--①-|
①口口① |--②-|
②口口② |--③-|
③口口③ |----|
58
②③④口 |①---|
口口口口 |--②-|
口①①口 |--③-|
口口口口 |--④-|
59
口口口① |--①-|
口口口口 |----|
②口口③ |②---|
口口口口 |③---|
60
口口口口 |①---|
口④③② |--②-|
口口口口 |--③-|
口①①口 |--④-|
61
口口口口 |--①-|
①口口口 |----|
口口口口 |②---|
③口口② |③---|
62
②③④口 |①---|
口口口口 |--②-|
口①①口 |--③-|
口口口口 |--④-|
63
口口口① |--①-|
口口口口 |----|
②口口③ |②---|
口口口口 |③---|
64
口口④口 |①---|
口口③② |--②-|
口口口口 |--③-|
口①①口 |--④-|
65
口①口口 |--①-|
③②口口 |--②-|
口口口口 |--③-|
口口口口 |----|
66
口口口口 |①--②|
口⑤⑥口 |--③-|
①②③④ |-④--|
口口口口 |⑤-⑥-|
67
口①②口 |----|
③口口④ |--①-|
口口口口 |②--③|
口口口口 |--④-|
68
口⑤⑥口 |①--②|
口口口口 |--③-|
④③②① |-④--|
口口口口 |⑤-⑥-|
69
④口口③ |----|
口②①口 |--①-|
口口口口 |②--③|
口口口口 |--④-|
70
口口口口 |①--②|
口⑤⑥口 |--③-|
①②③④ |-④--|
口口口口 |⑤-⑥-|
71
口①②口 |----|
③口口④ |--①-|
口口口口 |②--③|
口口口口 |--④-|
72
口⑤⑥口 |①--②|
口口口口 |--③-|
④③②① |-④--|
口口口口 |⑤-⑥-|
73
④口口③ |----|
口②①口 |--①-|
口口口口 |②--③|
口口口口 |--④-|
74
口口口口 |①--②|
口⑤⑥口 |--③-|
①②③④ |-④--|
口口口口 |⑤-⑥-|
75
口①②口 |----|
③口口④ |--①-|
口口口口 |②--③|
口口口口 |--④-|
76
口⑤⑥口 |①--②|
口口口口 |--③-|
④③②① |-④--|
口口口口 |⑤-⑥-|
77
④口口③ |----|
口②①口 |--①-|
口口口口 |②--③|
口口口口 |--④-|
78
口口口口 |①--②|
口⑤⑥口 |--③-|
①②③④ |-④--|
口口口口 |⑤-⑥-|
79
口①②口 |----|
③口口④ |--①-|
口口口口 |②--③|
口口口口 |--④-|
80
口⑤⑥口 |①--②|
口口口口 |--③-|
④③②① |-④--|
口口口口 |⑤-⑥-|


不确定度: 0

最終更新:2012年11月27日 22:18