NIGHT FLIGHT
小野秀幸

BASIC

Level: 4
BPM: 180
Notes: 308

1
口口口口 |----|
口口口口 |----|
口口口口 |----|
口口口口 |----|
2
口⑤口口 |①---|
口口②口 |②---|
口④口口 |③-④-|
口③①口 |⑤---|
3
口⑥⑤④ |①---|
口口②口 |②---|
口③口口 |③-④-|
口口①口 |⑤-⑥-|
4
口口口口 |①---|
口口口口 |--②-|
③③口口 |----|
口口②① |③---|
5
口口口口 |①---|
口口③③ |--②-|
口口口口 |----|
①②口口 |③---|
6
③③口口 |①---|
口口口口 |--②-|
口口②① |----|
口口口口 |③---|
7
口口③③ |①---|
①②口口 |--②-|
口口口口 |----|
口口口口 |③---|
8
口口口口 |①---|
口口口口 |--②-|
口口③③ |----|
①②口口 |③---|
9
口口口口 |①---|
③③口口 |--②-|
口口口口 |----|
口口②① |③---|
10
口口③③ |①---|
口口口口 |--②-|
①②口口 |----|
口口口口 |③---|
11
③③口口 |①---|
口口②① |--②-|
口口口口 |----|
口口口口 |③---|
12
口口③③ |①---|
口口口口 |--②-|
②②口口 |----|
口口①① |③---|
13
③③口口 |①---|
口口口口 |--②-|
口口②② |----|
①①口口 |③---|
14
口口③③ |①---|
口口口口 |--②-|
②②口口 |----|
口口①① |③---|
15
③③口口 |①---|
口口口口 |--②-|
口口②② |----|
①①口口 |③---|
16
口口口① |①---|
口口口① |--②-|
②口口③ |----|
②口口③ |③---|
17
①口口② |①---|
①口口② |--②-|
③口口口 |----|
③口口口 |③---|
18
口②①口 |①---|
口②①口 |--②-|
口口③口 |----|
口口③口 |③---|
19
①④④② |①---|
①口口② |--②-|
口③③口 |----③-|
口口口口 |--④---|
20
口口口口 |----|
口口口口 |----|
口口口口 |----|
口口口口 |----|
21
口口口④ |①---|
口口口③ |②---|
口口口② |③---|
口口口① |④---|
22
①口②口 |①---|
口口口口 |----|
口口口口 |②---|
口口口口 |----|
23
口①口口 |①---|
口②口口 |②---|
口③口口 |③---|
口④口口 |④---|
24
口口口口 |①---|
口口口口 |----|
口口口口 |----|
口口①口 |----|
25
④口口口 |①---|
③口口口 |②---|
②口口口 |③---|
①口口口 |④---|
26
口②口① |①---|
口口口口 |----|
口口口口 |②---|
口口口口 |----|
27
口口①口 |①---|
口口②口 |②---|
口④③口 |③---|
口口口口 |④---|
28
口口口口 |①---|
口①口口 |----|
口口口口 |----|
口口口口 |----|
29
口④口口 |①---|
③口口口 |②---|
口②口口 |③---|
①口口口 |④---|
30
口口④口 |①---|
口口口③ |②---|
口口②口 |③---|
口口口① |④---|
31
④口口口 |①---|
口③口口 |②---|
②口口口 |③---|
口①口口 |④---|
32
口口口口 |①---|
口口口口 |----|
口口口口 |----|
口口①口 |----|
33
口④口口 |①---|
口③口口 |②---|
口②口口 |③---|
口①口口 |④---|
34
口口①口 |①---|
口口②口 |②---|
口口③口 |③---|
口口④口 |④---|
35
口口口④ |①---|
③口口口 |②---|
口口口② |③---|
①口口口 |④---|
36
口②②口 |①---|
口口口口 |--②-|
口①①口 |----|
口口口口 |----|
37
①口口口 |----|
口口②口 |①---|
③口口口 |②---|
口口口口 |③---|
38
口②口口 |①---|
口口口③ |②---|
口④口口 |③---|
口口①口 |④---|
39
口口口口 |①---|
口④口口 |②---|
口口③口 |③---|
口②口① |④---|
40
④②①③ |①---|
口口口口 |②---|
口口口口 |③---|
口口口口 |④---|
41
口口①口 |----|
口②口口 |①---|
口口③口 |②---|
口口口口 |③---|
42
口口口口 |①---|
口④④口 |②---|
口③口口 |③---|
口①②口 |④---|
43
口口口口 |----|
口口口口 |①---|
③口口③ |②---|
②①①② |③---|
44
口②②口 |①---|
①②②① |----|
口口口口 |②---|
口口口口 |----|
45
①口口口 |----|
口口②口 |①---|
③口口口 |②---|
口口口口 |③---|
46
口②口口 |①---|
口口口③ |②---|
口④口口 |③---|
口口①口 |④---|
47
口口口口 |①---|
口④口口 |②---|
口口③口 |③---|
口②口① |④---|
48
④②①③ |①---|
口口口口 |②---|
口口口口 |③---|
口口口口 |④---|
49
口口①口 |----|
口②口口 |①---|
口口③口 |②---|
口口口口 |③---|
50
口口口口 |①---|
口④④口 |②---|
口③口口 |③---|
口①②口 |④---|
51
口口口口 |①---|
①口口① |②---|
④口口④ |③---|
③②②③ |④---|
52
口②②口 |①---|
①②②① |----|
口口口口 |②---|
口口口口 |----|
53
口口口口 |----|
口口口口 |----|
口口口口 |----|
口口口口 |----|
54
口口口口 |----|
口口口口 |----|
口口口口 |----|
口口口口 |----|
55
口口口口 |①---|
①口口① |----|
①口口① |----|
口口口口 |----|
56
口口③口 |----①-|
①②口④ |--②---|
口口口⑤ |③---④-|
口口口口 |--⑤---|
57
①①口口 |①---|
口口③③ |--②-|
②②口口 |----|
口口口口 |③---|
58
口口口口 |----|
口口口口 |----|
口口口口 |----|
口口口口 |----|
59
口口①① |①---|
③③口口 |--②-|
口口②② |----|
口口口口 |③---|
60
口①①口 |----|
口③③口 |①---|
口②②口 |②---|
口口口口 |③---|
61
②口口② |①---|
①口口① |----|
口口口口 |②---|
口口口口 |----|
62
口口口口 |①---|
①口口① |----|
口②②口 |②---|
口口口口 |----|
63
口口口口 |①---|
①口口① |----|
①口口① |----|
口口口口 |----|
64
口口③口 |----①-|
①②口④ |--②---|
口口口⑤ |③---④-|
口口口口 |--⑤---|
65
①①口口 |①---|
口口③③ |--②-|
②②口口 |----|
口口口口 |③---|
66
口口口口 |----|
口口口口 |----|
口口口口 |----|
口口口口 |----|
67
口口①① |①---|
③③口口 |--②-|
口口②② |----|
口口口口 |③---|
68
口①①口 |----|
口③③口 |①---|
口②②口 |②---|
口口口口 |③---|
69
②口口② |①---|
口口口口 |----|
①口口① |②---|
口口口口 |----|
70
口口口口 |①---②-|
①⑥⑥① |--③---|
②⑤⑤② |④---⑤-|
③④④③ |--⑥---|
71
①口口① |①---|
口口口口 |----|
口口口口 |----|
口口口口 |----|
72
口口口口 |----|
口口口口 |----|
口口口口 |----|
口口口口 |----|
73
口口口口 |--①-|
口②①口 |----|
口①②口 |②---|
口口口口 |----|
74
口②①口 |--①-|
④口口④ |----|
③口口③ |②---|
口①②口 |③-④-|


不确定度: 0

最終更新:2012年11月27日 22:16