RePrise
SHOGO

EXTREME

Level: 9
BPM: 182
Notes: 648

1
口口口口 |----|
口口口口 |----|
口口口口 |----|
口口口口 |----|
2
口②①口 |①②③④|
⑧④③⑧ |⑤-⑥-|
⑦口⑤⑦ |⑦---|
口口⑥口 |⑧---|
3
⑥口口③ |①---|
④①口口 |②-③-|
口①口口 |--④-|
⑤口口② |⑤-⑥-|
4
⑤口②口 |--①-|
③口口口 |②---|
口口口口 |③-④-|
④口①口 |⑤---|
5
⑥口口③ |①---|
④①口口 |②-③-|
口①口口 |--④-|
⑤口口② |⑤-⑥-|
6
口①口口 |--①-|
口③②口 |②-③-|
口⑤④口 |④-⑤-|
口⑦⑥口 |⑥-⑦-|
7
⑥①①③ |①---|
④口口口 |②-③-|
口口口口 |--④-|
⑤口口② |⑤-⑥-|
8
⑤口②口 |--①-|
③口口口 |②---|
口口口口 |③-④-|
④口①口 |⑤---|
9
⑥口口③ |①---|
④①口口 |②-③-|
口①口口 |--④-|
⑤口口② |⑤-⑥-|
10
口①口口 |--①-|
口③②口 |②-③-|
口⑤④口 |④-⑤-|
口⑦⑥口 |⑥-⑦-|
11
⑥①①① |--①-|
②口①⑤ |--②-|
口口口④ |③-④-|
口口口③ |⑤-⑥-|
12
口口口口 |--①-|
③④⑤⑥ |②-③-|
②①①⑦ |④-⑤-|
③④⑤⑥ |⑥-⑦-|
13
口①①口 |----|
口②②口 |①---|
③③③③ |②---|
口口口口 |③---|
14
②口⑥③ |①---|
口④口口 |②-③-|
口口⑤口 |--④-|
①①①① |⑤-⑥-|
15
①口口口 |--①-|
③口口② |②-③-|
⑤口口④ |④-⑤-|
口口口⑥ |⑥---|
16
⑥①①① |--①-|
口②①② |--②-|
口口②④ |③-④-|
口口③⑤ |⑤-⑥-|
17
⑥⑤②③ |--①-|
①口口④ |②-③-|
①①④④ |④-⑤-|
①①④⑦ |⑥-⑦-|
18
口④③口 |----|
口口口③ |①-②-|
口②口④ |③---|
①口口口 |④---|
19
①口口口 |①---|
口③⑥口 |②-③-|
口口④口 |--④-|
口②⑤① |⑤-⑥-|
20
①口口口 |--①-|
③口口② |②-③-|
⑤口口④ |④-⑤-|
口口口⑥ |⑥---|
21
口口①⑦ |--①-|
口①①⑥ |②-③-|
口①①⑤ |④-⑤-|
②③④口 |⑥-⑦-|
22
⑤①①⑤ |--①-|
①②③口 |--②-|
口①①口 |③---|
口④④口 |④-⑤-|
23
口②②⑤ |--①-|
口口口口 |②---|
口③③④ |③---|
①口口① |④-⑤-|
24
⑤②②口 |--①-|
口④口口 |--②-|
③口口口 |--③-|
口①①口 |④-⑤-|
25
口口口⑤ |----|
口口口④ |①---|
口口口③ |②-③-|
口①①② |④-⑤-|
26
口口口口 |--①-|
①③⑤口 |--②-|
①②④口 |③---|
口口口口 |④-⑤-|
27
口口口口 |--①-|
口口口② |②---|
口口口① |----|
口口口口 |----|
28
口口口口 |----|
①口口口 |----|
①①①口 |①---|
①②①③ |②-③-|
29
口②①口 |----|
口④③口 |①-②-|
口⑥⑤口 |③-④-|
口口口口 |⑤-⑥-|
30
口④②口 |①---|
口⑤③口 |②-③-|
口口口口 |--④-|
①口口① |⑤---|
31
①口口③ |--①-|
口⑥③口 |②-③-|
②⑤③③ |--④-|
②④③口 |⑤-⑥-|
32
口口口口 |--①-|
口⑤⑤③ |②-③-|
口④④② |--④-|
口⑥⑥① |⑤-⑥-|
33
①口口① |①---|
口口口口 |②---|
②口口②
口口口口

⑥③③⑥
③④⑤口
口③③口 |③-④-|
口口口口 |⑤-⑥-|
34
口口口口 |--①-|
口口口口 |②-③-|
①口口① |④-⑤-|
②③④⑤ |----|
35
①③①③ |----|
口①③口 |①---|
口①②② |②---|
口口②② |③---|
36
口口口口 |①---|
口口口口 |②-③-|
口③口口 |--④-|
①②④⑤ |--⑤-|
37
口口口口 |①---|
口口口口 |②-③-|
②口③① |----|
口口口口 |----|
38
①口②口 |----|
口口口口 |----|
①口②口 |①---|
口口口口 |②---|
39
口口⑥口 |--①-|
④⑤口口 |②-③-|
口①⑥① |--④-|
①②①③ |⑤-⑥-|
40
口①口口 |--①-|
⑥口②③ |②-③-|
⑤①口⑤ |--④-|
口④④口 |⑤-⑥-|
41
②②①① |①---|
口口口口 |②---|
口口⑤⑥ |③-④-|
③④口口 |⑤-⑥-|
42
口口口口 |--①-|
①口口② |②---|
口口口口 |③-④-|
④③③④ |----|
43
①③①③ |----|
口①③口 |①---|
口①②② |②---|
口口②② |③---|
44
口口口口 |①---|
口口口口 |②-③-|
口③口口 |--④-|
①②④⑤ |--⑤-|
45
口口口口 |①---|
口口口口 |②-③-|
②口③① |----|
口口口口 |----|
46
①口口② |----|
口口口口 |----|
①口口② |①---|
口口口口 |②---|
47
口口口口 |①-②-|
①②③⑧ |③-④-|
口④⑤⑥ |⑤-⑥-|
口口口⑦ |⑦-⑧-|
48
口口口口 |①-②-|
①②③⑧ |③-④-|
口④⑤⑥ |⑤-⑥-|
口口口⑦ |⑦-⑧-|
49
口口口口 |①-②-|
②④⑥⑧ |③-④-|
口口口口 |⑤-⑥-|
①③⑤⑦ |⑦-⑧-|
50
①②③④ |①-②-|
口口口口 |③-④-|
口⑤⑤口 |⑤---|
口口⑥⑦ |⑥-⑦-|
51
①②③口 |①-②-③-|
④⑤⑥口 |④-⑤-⑥-|
⑦⑧⑨口 |⑦-⑧-⑨-|
⑩⑪⑫口 |⑩-⑪-⑫-|
52
口③②① |①-②-③-|
④⑤⑥口 |④-⑤-⑥-|
口⑨⑧⑦ |⑦-⑧-⑨-|
⑩⑪⑫口 |⑩-⑪-⑫-|
53
口③②① |①-②-③-|
口⑥⑤④ |④-⑤-⑥-|
口⑨⑧⑦ |⑦-⑧-⑨-|
口⑫⑪⑩ |⑩-⑪-⑫-|
54
①②③口 |①-②-③-|
④⑤⑥口 |④-⑤-⑥-|
口口口⑦ |⑦---|
口口口口 |----|
55
①②③① |①-②-③-|
④⑤⑥④ |④-⑤-⑥-|
⑦⑧⑨⑦ |⑦-⑧-⑨-|
⑩⑪⑫⑩ |⑩-⑪-⑫-|
56
①②③① |①-②-③-|
④⑤⑥④ |④-⑤-⑥-|
⑦⑧⑨⑦ |⑦-⑧-⑨-|
⑩⑪⑫⑩ |⑩-⑪-⑫-|
57
①②③① |①-②-③-|
④⑤⑥④ |④-⑤-⑥-|
⑦⑧⑨⑦ |⑦-⑧-⑨-|
⑩⑪⑫⑩ |⑩-⑪-⑫-|
58
①②③① |①-②-③-|
④⑤⑥④ |④-⑤-⑥-|
口口口⑦ |⑦---|
口口口口 |----|
59
①口口③ |--①-|
口⑥③口 |②-③-|
②⑤③③ |--④-|
②④③口 |⑤-⑥-|
60
口口口口 |--①-|
口⑤⑤③ |②-③-|
口④④② |--④-|
口⑥⑥① |⑤-⑥-|
61
①口口① |①---|
口口口口 |②---|
②口口②
口口口口

⑥③③⑥
③④⑤口
口③③口 |③-④-|
口口口口 |⑤-⑥-|
62
口口口口 |--①-|
口口口口 |②-③-|
①口口① |④-⑤-|
②③④⑤ |----|
63
①③①③ |----|
口①③口 |①---|
口①②② |②---|
口口②② |③---|
64
口口口口 |①---|
口口口口 |②-③-|
口③口口 |--④-|
①②④⑤ |--⑤-|
65
口口口口 |①---|
口口口口 |②-③-|
②口③① |----|
口口口口 |----|
66
①口②口 |----|
口口口口 |----|
①口②口 |①---|
口口口口 |②---|
67
口口⑥口 |--①-|
④⑤口口 |②-③-|
口①⑥① |--④-|
①②①③ |⑤-⑥-|
68
口①口口 |--①-|
⑥口②③ |②-③-|
⑤①口⑤ |--④-|
口④④口 |⑤-⑥-|
69
②②①① |①---|
口口口口 |②---|
口口⑤⑥ |③-④-|
③④口口 |⑤-⑥-|
70
口口口口 |--①-|
①口口② |②---|
口口口口 |③-④-|
④③③④ |----|
71
①③①③ |----|
口①③口 |①---|
口①②② |②---|
口口②② |③---|
72
口口口口 |①---|
口口口口 |②-③-|
口③口口 |--④-|
①②④⑤ |--⑤-|
73
口口口口 |①---|
口口口口 |②-③-|
②口③① |----|
口口口口 |----|
74
①口口② |----|
口口口口 |----|
①口口② |①---|
口口口口 |②---|
75
口口④口 |①---|
②⑤口③ |②-③-|
口口⑥口 |--④-|
口①①口 |⑤-⑥-|
76
②口口口 |--①-|
口口③口 |②---|
口④口口 |③-④-|
①口⑤口 |⑤---|
77
口口④口 |①---|
口⑤口③ |②-③-|
口口⑥② |--④-|
①口口① |⑤-⑥-|
78
①口口口 |--①-|
③口口② |②-③-|
⑤口口④ |④-⑤-|
⑦口口⑥ |⑥-⑦-|
79
口口④口 |①---|
②⑤口③ |②-③-|
口口⑥口 |--④-|
口①①口 |⑤-⑥-|
80
②口口口 |--①-|
口口③口 |②---|
口④口口 |③-④-|
①口⑤口 |⑤---|
81
口口④口 |①---|
口⑤口③ |②-③-|
口口⑥② |--④-|
①口口① |⑤-⑥-|
82
①口口口 |--①-|
③口口② |②-③-|
⑤口口④ |④-⑤-|
⑦口口⑥ |⑥-⑦-|
83
口口口口 |①---|
口①①口 |----|
口①①口 |----|
口口口口 |----|
84
口口口口 |----|
口口口口 |----|
口口口口 |----|
口口口口 |----|
85
口口口口 |①②③-|
口口①口 |----|
口②口口 |----|
口口③口 |----|


不确定度: 0

最終更新:2012年11月06日 23:01