NIGHT FLIGHT
小野秀幸

ADVANCED

Level: 7
BPM: 180
Notes: 568

1
口口口口 |----|
口口口口 |----|
口口口口 |----|
口口口口 |----|
2
口口口⑦ |①-②-|
⑥④③⑤ |③-④-|
口②⑧口 |⑤-⑥-|
口口①口 |⑦-⑧-|
3
口口口口 |①-②-|
口③②口 |③-④-|
⑦①⑧⑥ |⑤-⑥-|
口⑤④口 |⑦-⑧-|
4
①口口② |①---|
①口口② |--②-|
口口口口 |----|
③口口③ |③---|
5
③①口③ |①---|
口口②口 |--②-|
口口①口 |----|
口②口口 |③---|
6
口③③口 |①---|
①口口② |--②-|
口口口口 |----|
口②①口 |③---|
7
口口口口 |①---|
①口口② |--②-|
②③③① |----|
口口口口 |③---|
8
口①②口 |①---|
③①②③ |--②-|
③口口③ |----|
口口口口 |③---|
9
口口口口 |①---|
③①②③ |--②-|
口③③口 |----|
口①②口 |③---|
10
口①②口 |①---|
③①②③ |--②-|
口口口口 |----|
③口口③ |③---|
11
③口口③ |①---|
口①②口 |--②-|
口③③口 |----|
口②①口 |③---|
12
⑦①口口 |①-②-|
⑦①⑥④ |③-④-|
③口⑧④ |⑤-⑥-|
口⑤口② |⑦-⑧-|
13
⑦①口④ |①-②-|
⑦①口④ |③-④-|
③⑤口⑧ |⑤-⑥-|
口口②⑥ |⑦-⑧-|
14
⑦①口④ |①-②-|
⑦①⑥④ |③-④-|
③口口口 |⑤-⑥-|
口⑤②⑧ |⑦-⑧-|
15
⑧①⑦④ |①-②-|
口①⑦④ |③-④-|
③⑥口② |⑤-⑥-|
口口⑤口 |⑦-⑧-|
16
口口⑦④ |①-②-|
⑤⑥⑦④ |③-④-|
口⑧口① |⑤-⑥-|
②③口① |⑦-⑧-|
17
④⑦口口 |①-②-|
④⑦⑥⑤ |③-④-|
①口⑧口 |⑤-⑥-|
①口③② |⑦-⑧-|
18
口口⑦④ |①-②-|
⑤⑥⑦④ |③-④-|
口⑧口① |⑤-⑥-|
②③口① |⑦-⑧-|
19
④④口口 |①-②-|
口口口口 |③-④-|
①口口口
①口③②

口口口口
⑤⑥⑥⑤
⑥⑤⑤⑥ |----⑤-|
口口口口 |--⑥---|
20
口口口口 |----|
口①①口 |----|
口①①口 |--①-|
口口口口 |----|
21
⑧⑧口③ |①-②-|
②口口⑤ |③-④-|
⑥口口口 |⑤-⑥-|
口④⑦① |⑦-⑧-|
22
口口口口 |--①-|
④④①口 |②-③-|
口②口⑤ |④---|
⑥口口③ |⑤-⑥-|
23
口口口口 |①-②-|
口⑥口③ |③-④-|
④②⑦口 |⑤-⑥-|
⑧⑧①⑤ |⑦-⑧-|
24
口口口口 |----|
口口口口 |----|
口口口口 |----|
口口口口 |----|
25
③口⑧⑧ |①-②-|
口口④② |③-④-|
⑤①⑥口 |⑤-⑥-|
口⑦口口 |⑦-⑧-|
26
口口口口 |--①-|
①口④④ |②-③-|
口⑤口② |④---|
③口⑥口 |⑤-⑥-|
27
口口口口 |①-②-|
③口⑥⑥ |③-④-|
⑤⑦②④ |⑤-⑥-|
口①⑧口 |--⑦⑧|
28
口口口口 |①---|
口口口口 |----|
口口口口 |----|
口①口口 |----|
29
口⑧口③ |①-②-|
⑧②⑤口 |③-④-|
⑥口①口 |⑤-⑥-|
口④口⑦ |⑦-⑧-|
30
④口口口 |--①-|
口④⑤① |②-③-|
⑥②口口 |④---|
口口③口 |⑤-⑥-|
31
口口口口 |①-②-|
口⑥口③ |③-④-|
⑧②⑦口 |⑤-⑥-|
④⑧⑤① |⑦-⑧-|
32
口口口口 |----|
口口口口 |----|
口口口口 |----|
口口口口 |----|
33
口③⑧口 |①-②-|
口口②⑧ |③-④-|
①⑤口④ |⑤-⑥-|
⑦口口⑥ |⑦-⑧-|
34
口口口④ |--①-|
①⑤④口 |②-③-|
口口⑥② |④---|
口③口口 |⑤-⑥-|
35
口口⑥口 |①-②-|
口⑦⑧⑥ |③-④-|
口③口口 |⑤-⑥-|
①⑤②④ |--⑦⑧|
36
②②口口 |①---|
口口口口 |--②-|
①口口口 |----|
①口②② |----|
37
①口①口 |----|
口②口② |①---|
③口③口 |②---|
口口口口 |③---|
38
口口口口 |①---|
③口③口 |②---|
口②口② |③---|
④①④① |④---|
39
口口口口 |①---|
③④③④ |②---|
①②①② |③---|
口口口口 |④---|
40
①④①④ |①---|
口口口口 |②---|
②口②口 |③---|
③口③口 |④---|
41
①口①口 |----|
口②口② |①---|
③口③口 |②---|
口口口口 |③---|
42
④口④口 |①---|
口口口口 |②---|
口③口③ |③---|
②①②① |④---|
43
口口口口 |----|
⑥⑤⑥⑤ |①-②-|
④③④③ |③-④-|
②①②① |⑤-⑥-|
44
④③②① |①-②-|
口口口口 |③-④-|
口口口口 |----|
口口口口 |----|
45
口①口① |----|
②口②口 |①---|
口③口③ |②---|
口口口口 |③---|
46
口口口口 |①---|
口③口③ |②---|
②口②口 |③---|
①④①④ |④---|
47
口口口口 |①---|
④③④③ |②---|
②①②① |③---|
口口口口 |④---|
48
④①④① |①---|
口口口口 |②---|
口②口② |③---|
口③口③ |④---|
49
口①口① |----|
②口②口 |①---|
口③口③ |②---|
口口口口 |③---|
50
口④口④ |①---|
口口口口 |②---|
③口③口 |③---|
①②①② |④---|
51
①口①口 |①---|
⑥⑦⑥⑦ |②-③-|
④⑤④⑤ |④-⑤-|
②③②③ |⑥-⑦-|
52
①②③④ |①---②-|
口口口口 |--③---|
口口口口 |④---|
口口口口 |----|
53
口口口口 |----|
口口口口 |----|
口口口口 |----|
口口口口 |----|
54
口口口口 |----|
口①①口 |----|
口①①口 |--①-|
口口口口 |----|
55
①①①① |①---|
④④④④ |②---|
③③③③ |③---|
②②②② |④---|
56
①①①① |①---②-|
口口口口 |--③-|
口⑤④口 |④--⑤|
口③②⑥ |--⑥-|
57
③③口口 |①---|
①①口口 |--②-|
口口②② |----|
口口口口 |③---|
58
口口④① |--①-|
口口⑤② |②-③-|
口⑥⑦口 |④-⑤-|
③口口口 |⑥-⑦-|
59
口①口口 |①---|
①③③口 |--②-|
口③③② |----|
口口②口 |③---|
60
口口①口 |----|
口③③① |①---|
②③③口 |②---|
口②口口 |③---|
61
口①⑤口 |①-②-|
⑧口口④ |③-④-|
⑥口口② |⑤-⑥-|
③口口⑦ |⑦-⑧-|
62
口①⑤口 |①-②-|
⑧口口④ |③-④-|
⑥口口② |⑤-⑥-|
③口口⑦ |⑦-⑧-|
63
①口口① |①---|
口④口④ |②---|
③①①③ |③---|
口②②口 |④---|
64
①口①口 |①---②-|
口口口口 |--③-|
口⑤④口 |④--⑤|
口③②⑥ |--⑥-|
65
③③口口 |①---|
①①口口 |--②-|
口口②② |----|
口口口口 |③---|
66
口口④① |--①-|
口口⑤② |②-③-|
口⑥⑦口 |④-⑤-|
③口口口 |⑥-⑦-|
67
口①口口 |①---|
①③③口 |--②-|
口③③② |----|
口口②口 |③---|
68
口口①口 |----|
口③③① |①---|
②③③口 |②---|
口②口口 |③---|
69
口①⑤口 |①-②-|
⑧口口④ |③-④-|
⑥口口② |⑤-⑥-|
③口口⑦ |⑦-⑧-|
70
⑥口口⑤ |①---②-|
口①①② |--③---|
⑥③②⑤ |④---⑤-|
③④④口 |--⑥---|
71
口①①口 |①---|
③口口② |--②-|
口口口口 |----|
口口口口 |③---|
72
口口口口 |--①-|
口口口口 |----|
②口口① |②---|
口口③口 |③---|
73
口口⑤口 |--①②|
⑨④③⑧ |③④⑤-|
⑦②①⑥ |⑥⑦⑧⑨|
⑬⑫⑪⑩ |⑩⑪⑫⑬|
74
⑪⑪⑤口 |--①②|
⑨④③⑧ |③④⑤-|
⑦②①⑥ |⑥⑦⑧⑨|
口口⑩口 |⑩-⑪-|


不确定度: 0

最終更新:2012年11月27日 22:16