Mother Ship
Sota Fujimori

BASIC

Level: 4
BPM: 152
Notes: 292

1
口口口口 |----|
口口口口 |----|
口口口口 |----|
口口口口 |----|
2
①②口口 |①-②-|
口口④③ |③-④-|
⑤⑥口口 |⑤-⑥-|
口口⑧⑦ |⑦-⑧-|
3
口⑤④口 |①-②-|
口③⑥口 |③-④-|
口⑦②口 |⑤-⑥-|
口①口口 |⑦---|
4
口口口口 |①---|
口口口口 |----|
口②②口 |②---|
①口口① |----|
5
口②②口 |①---|
口①①口 |----|
口口口口 |②---|
口口口口 |----|
6
⑥⑦口口 |①-②-|
⑤口口口 |③-④-|
③口口④ |⑤--⑥|
①口口② |--⑦-|
7
口口口口 |①---|
口③②① |②---|
口口口口 |③---|
口口口口 |----|
8
口口口口 |①---|
口口口口 |----|
口②②口 |②---|
①口口① |----|
9
口②②口 |①---|
口①①口 |----|
口口口口 |②---|
口口口口 |----|
10
⑥⑦口口 |①-②-|
⑤口口口 |③-④-|
③口口④ |⑤--⑥|
①口口② |--⑦-|
11
口口口口 |①-②-|
口②①口 |③-④-|
口④③口 |⑤--⑥|
口口⑤⑥ |----|
12
①①口口 |①---|
口②②口 |----|
口口口口 |②---|
口口口口 |----|
13
口口口口 |①---|
口口口口 |----|
口口①① |----|
口口口口 |----|
14
口口①① |①---|
口②②口 |----|
口口口口 |②---|
口口口口 |----|
15
口口口口 |①---|
口口口口 |----|
①①口口 |----|
口口口口 |----|
16
口口口① |①---|
口口③② |②---|
口口④口 |③---|
口口口口 |④---|
17
口口口口 |①---|
③口口口 |②---|
④①口口 |③---|
口②口口 |④---|
18
口①口口 |①---|
口②③口 |②---|
口口④口 |③---|
口口口口 |④---|
19
口口③口 |①---|
口口④口 |②---|
口口口① |③---|
口口口② |④---|
20
口口口口 |①-②-|
口口口口 |③-④-|
⑤⑥⑦口 |⑤-⑥-|
①②④③ |⑦---|
21
④⑤⑥口 |①-②-|
口③②① |③---|
口口口口 |④-⑤-|
口口口口 |⑥---|
22
口口口口 |①-②-|
口口口口 |③-④-|
⑤⑥⑦口 |⑤-⑥-|
①②④③ |⑦---|
23
①②④③ |①-②-|
⑤⑥⑦口 |③-④-|
口口口口 |⑤-⑥-|
口口口口 |⑦---|
24
③④②① |①-②-|
口⑦⑥⑤ |③-④-|
口口口口 |⑤-⑥-|
口口口口 |⑦---|
25
口口口口 |①-②-|
口口口口 |③---|
①②③口 |④-⑤-|
口⑥⑤④ |⑥---|
26
③④②① |①-②-|
口⑦⑥⑤ |③-④-|
口口口口 |⑤-⑥-|
口口口口 |⑦---|
27
口口口口 |①-②-|
口口口口 |③-④-|
口⑦⑥⑤ |⑤-⑥-|
③④②① |⑦---|
28
口口口① |①---|
口口口口 |----|
口口口口 |----|
口口口口 |----|
29
口口口口 |①---|
口③口③ |②---|
②口②口 |③---|
口①①口 |----|
30
口口口口 |----|
口口口口 |----|
口口口口 |----|
口口口口 |----|
31
口口口口 |①---|
③口③口 |②---|
口②口② |③---|
①口口① |----|
32
口口口口 |----|
口口口口 |----|
口口口口 |----|
口口口口 |----|
33
口口口口 |----|
口口口口 |----|
口口口口 |----|
口口口口 |----|
34
口口口口 |----|
口口口口 |----|
口口口口 |----|
口口口口 |----|
35
口①①口 |①---|
口②②口 |②---|
口③③口 |③---|
口④④口 |④---|
36
口口①① |①---|
口口②② |----|
口口口口 |②---|
口口口口 |----|
37
口口口口 |①---|
口口口口 |----|
口口①① |----|
口口口口 |----|
38
①①口口 |①---|
②②口口 |----|
口口口口 |②---|
口口口口 |----|
39
口口口口 |①---|
口口口口 |----|
①①口口 |②---|
口②②口 |----|
40
口口①① |①---|
口口②② |----|
口口口口 |②---|
口口口口 |----|
41
口口口口 |①---|
口口口口 |----|
口口①① |----|
口口口口 |----|
42
①①口口 |①---|
②②口口 |----|
口口口口 |②---|
口口口口 |----|
43
口口口口 |①---|
口口口口 |----|
①①口口 |②---|
口②②口 |----|
44
口口口口 |①---|
口口口口 |----|
②口口② |②---|
①口口① |----|
45
口口口口 |①---|
①③②① |----|
口②③口 |②---|
口口口口 |③---|
46
口口口口 |①---|
口口口口 |②---|
③口口④ |③---|
①口口② |④---|
47
③口口④ |①---|
①口口② |②---|
口口口口 |③---|
口口口口 |④---|
48
口①②口 |①---|
口③④口 |②---|
口口口口 |③---|
口口口口 |④---|
49
口口口口 |①---|
口口口口 |②---|
口①②口 |③---|
口③④口 |④---|
50
①口口② |①---|
③口口④ |②---|
口口口口 |③---|
口口口口 |④---|
51
口口口口 |①---|
口口口口 |②---|
①口口② |③---|
③口口④ |④---|
52
口口口口 |①---|
口口口口 |②---|
口③④口 |③---|
口①②口 |④---|
53
口③④口 |①---|
口①②口 |②---|
口口口口 |③---|
口口口口 |④---|
54
②口口口 |①---|
②口口① |----|
口口口口 |②---|
口口口口 |----|
55
口口口口 |①---|
口口口口 |----|
口②口口 |②---|
口②①口 |----|
56
口口口口 |①---|
②口口口 |----|
②口口① |②---|
口口口口 |----|
57
②②②② |①---|
口口口口 |----|
口口口口 |②---|
口①①口 |----|
58
口口口口 |①---|
口口口① |----|
②口口口 |②---|
②口口口 |----|
59
口口口口 |①---|
口②口口 |----|
口②口口 |②---|
口口口① |----|
60
②口口口 |①---|
②口①口 |----|
口口口口 |②---|
口口口口 |----|
61
口口口口 |①---|
口口口口 |----|
②口①口 |②---|
②口口口 |----|
62
①口口① |①---|
②口口② |----|
口口口口 |②---|
口口口口 |----|
63
口口口口 |①---|
口口口口 |②---|
口①②口 |③---|
口③④口 |④---|
64
口口口口 |①---|
口口口口 |----|
②口口② |②---|
①口口① |----|
65
口①②口 |①---|
口③④口 |②---|
口口口口 |③---|
口口口口 |④---|
66
①口口① |①---|
②口口② |----|
口口口口 |②---|
口口口口 |----|
67
口口口口 |①---|
口口口口 |②---|
口①②口 |③---|
口③④口 |④---|
68
口口口口 |①---|
口口口口 |----|
②口口② |②---|
①口口① |----|
69
口①②口 |①---|
口③④口 |②---|
口口口口 |③---|
口口口口 |④---|
70
口②②口 |①---|
口②②口 |----|
口①①口 |②---|
口口口口 |----|


不确定度: 0

最終更新:2012年11月27日 22:15