フー・フローツ
Nanako

BASIC

Level: 3
BPM: 180
Notes: 176

1
口口口口 |----|
口口口口 |----|
口口口口 |----|
口口口口 |----|
2
口口口口 |----|
口口口口 |----|
口口口口 |----|
口口口口 |----|
3
口口口口 |----|
口口口口 |----|
口口口口 |----|
口口口口 |----|
4
口口口口 |----|
口口口口 |----|
口口口口 |----|
口口口口 |----|
5
口口口口 |①---|
口口口口 |--②-|
口①②口 |----|
口口口口 |----|
6
口口口口 |----|
口口口口 |----|
口口口口 |----|
口口口口 |----|
7
口口口口 |①---|
口①②口 |--②-|
口口口口 |----|
口口口口 |----|
8
口口口口 |----|
口口口口 |----|
口口口口 |----|
口口口口 |----|
9
口口口口 |①---|
口口口口 |--②-|
口①②③ |----|
口口口口 |--③-|
10
口口口口 |----|
口口口口 |----|
口口口口 |----|
口口口口 |----|
11
口③②① |①---|
口口口口 |----|
口口口口 |②---|
口口口口 |--③-|
12
口口口口 |----|
口口口口 |----|
口口口口 |----|
口口口口 |----|
13
口口口口 |①---|
口口口口 |----|
口口口口 |②---|
口①②口 |----|
14
口口口口 |----|
口口口口 |----|
口①②口 |①---|
口口口口 |②---|
15
口口口口 |①---|
口①②口 |----|
口口口口 |②---|
口口口口 |----|
16
口①②口 |----|
口口口口 |----|
口口口口 |①---|
口口口口 |②---|
17
口口口口 |①---|
口②①口 |----|
口口口口 |②---|
口口口口 |----|
18
口口口口 |----|
口口口口 |----|
口②①口 |①---|
口口口口 |②---|
19
口口口口 |①---|
口口口口 |----|
口口口口 |----|
①②③口 |②-③-|
20
口口口口 |----|
口口口口 |----|
口口口口 |----|
口口口口 |----|
21
①口口① |①---|
口口口口 |----|
口口口口 |----|
口口口口 |----|
22
口口口口 |①---|
①口口① |----|
口口口口 |----|
口口口口 |----|
23
口口口口 |①---|
口口口口 |----|
口①①口 |----|
口口口口 |----|
24
口口口口 |①---|
口口口口 |----|
口口口口 |----|
口①①口 |----|
25
口口口口 |①---|
①口口口 |----|
口②口口 |②---|
口口口口 |----|
26
口口口口 |①---|
口口①口 |----|
口口口② |②---|
口口口口 |----|
27
②口口② |①---|
口①口口 |----|
口口口口 |②---|
口口口口 |----|
28
口①①口 |①---|
口口口口 |----|
口口口口 |----|
口口口口 |----|
29
口口口口 |①---|
口口口口 |②---|
口②口口 |③---|
①口③口 |----|
30
口口口口 |①---|
口②口口 |②---|
①口③口 |③---|
口口口口 |----|
31
口口口口 |①---|
口口口口 |②---|
口①口③ |③---|
口口②口 |----|
32
口口口口 |①---|
口①口③ |②---|
口口②口 |③---|
口口口口 |----|
33
口②口④ |①---|
①口③口 |②---|
口口口口 |③---|
口口口口 |④---|
34
口口口口 |①---|
口口口口 |②---|
①口③口 |③---|
口②口④ |④---|
35
口口口口 |①---|
口口口口 |----|
口口口口 |②---|
①口②口 |----|
36
口口口口 |①---|
①口②口 |----|
口口口口 |②---|
口口口口 |----|
37
口口口口 |①---|
口口口口 |②---|
口②①口 |③---|
口③④口 |④---|
38
口口口口 |①---|
口口口口 |----|
口口①口 |----|
口口口口 |----|
39
口④①口 |①---|
口③②口 |②---|
口口口口 |③---|
口口口口 |④---|
40
口口①口 |①---|
口口口口 |----|
口口口口 |----|
口口口口 |----|
41
③口口① |①---|
口口②口 |--②-|
口口口口 |----|
口口口口 |③---|
42
口口口口 |--①-|
口①口口 |----|
口口口口 |----|
口口口口 |----|
43
口口口口 |①---|
口③④口 |②---|
口②①口 |③---|
口口口口 |④---|
44
口①①口 |①---|
口口口口 |----|
口口口口 |----|
口口口口 |----|
45
口口口口 |①---|
口口口口 |----|
口①②口 |②---|
口口口口 |----|
46
口口口口 |①---|
口①②口 |----|
口口口口 |②---|
口口口口 |----|
47
口口口口 |①---|
口口口口 |--②-|
①②口④ |--③-|
口口③口 |--④-|
48
口口口口 |----|
口口口口 |----|
口口口口 |----|
口口口口 |----|
49
①②口口 |①---|
口口口口 |----|
口口口口 |②---|
口口口口 |----|
50
口口②① |①---|
口口口口 |----|
口口口口 |②---|
口口口口 |----|
51
口口③口 |①---|
①②口④ |--②-|
口口口口 |--③-|
口口口口 |--④-|
52
口口口口 |----|
口口口口 |----|
口口口口 |----|
口口口口 |----|
53
口口口口 |①---|
口口口口 |②---|
口③②① |③---|
口口口口 |----|
54
口口口口 |①---|
口③②① |②---|
口口口口 |③---|
口口口口 |----|
55
口口口口 |①---|
口口口口 |--②-|
④口②① |--③-|
口③口口 |--④-|
56
口口口口 |----|
口口口口 |----|
口口口口 |----|
口口口口 |----|
57
口③②① |①---|
口口口口 |②---|
口口口口 |③---|
口口口口 |----|
58
口口口口 |①---|
口③②① |②---|
口口口口 |③---|
口口口口 |----|
59
④口②① |①---|
口③口口 |--②-|
口口口口 |--③-|
口口口口 |--④-|
60
口口口口 |----|
口口口口 |----|
口口口口 |----|
口口口口 |----|
61
口口口口 |①---|
口口口口 |②---|
口②口口 |③---|
①口③口 |----|
62
口口②口 |①---|
口①口③ |②---|
口口口口 |③---|
口口口口 |----|
63
口口口口 |①---|
口口②口 |--②-|
口①口口 |----|
口口口口 |----|
64
口口口口 |①---|
口口口口 |--②-|
口口口口 |----|
口②①口 |----|
65
口口口口 |①---|
口口口口 |----|
口②②口 |②---|
①口口口 |----|
66
口口口口 |①---|
②②口① |----|
口口口口 |②---|
口口口口 |----|
67
口③口① |①---|
口口②口 |--②-|
口口口口 |----|
口口口口 |③---|
68
口口口口 |--①-|
①口口口 |----|
口口口口 |----|
口口口口 |----|
69
口口口口 |①---|
口口口口 |②---|
口口口口 |③---|
①②③④ |④---|
70
口口口口 |①---|
口口口口 |②---|
①②③④ |③---|
口口口口 |④---|
71
口口口口 |①---|
口口口口 |----|
口口口口 |②---|
口①②口 |----|
72
口口口口 |----|
口口口口 |----|
口①②口 |①---|
口口口口 |②---|
73
口口口口 |①---|
口①②口 |----|
口口口口 |②---|
口口口口 |----|
74
口①②口 |----|
口口口口 |----|
口口口口 |①---|
口口口口 |②---|
75
口口口口 |①---|
口②①口 |----|
口口口口 |②---|
口口口口 |----|
76
口口口口 |----|
口口口口 |----|
口②①口 |①---|
口口口口 |②---|
77
口口口口 |①---|
口口口口 |----|
口口②口 |②---|
①口口口 |----|
78
口口②口 |①---|
①口口口 |----|
口口口口 |②---|
口口口口 |----|
79
口④口口 |①---|
③口口口 |②---|
口②口口 |③---|
①口口口 |④---|
80
口口口④ |①---|
口口③口 |②---|
口口口② |③---|
口口①口 |④---|
81
口口口口 |①---|
口口口口 |----|
口①①口 |----|
口口口口 |----|


不确定度: 0

最終更新:2012年11月27日 22:13