フー・フローツ
Nanako

ADVANCED

Level: 5
BPM: 180
Notes: 347

1
口口口口 |----|
口口口口 |----|
口口口口 |----|
口口口口 |----|
2
口口口口 |----|
口口口口 |----|
口口口口 |----|
口口口口 |----|
3
口口口口 |----|
口口口口 |----|
口口口口 |----|
口口口口 |----|
4
口口口口 |----|
口口口口 |----|
口口口口 |----|
口口口口 |----|
5
口口口口 |①-②-|
②①口口 |--③-|
③④口口 |--④-|
口口口口 |----|
6
口口口口 |----|
口口口口 |----|
口口口口 |----|
口口口口 |----|
7
口口口口 |①-②-|
口②①⑤ |--③-|
口③④口 |--④-|
口口口口 |--⑤-|
8
口口口口 |----|
口口口口 |----|
口口口口 |----|
口口口口 |----|
9
口口口口 |①-②-|
②①⑤口 |--③-|
③④口口 |--④-|
口口口口 |--⑤-|
10
口③口口 |----|
①②口口 |①---|
口口口口 |②---|
口口口口 |③---|
11
口口①② |①---|
口③③口 |----|
口口口口 |②---|
口口口口 |--③-|
12
口口口口 |----|
口口口口 |----|
口口口口 |----|
口口口口 |----|
13
口口口口 |①---|
口口口口 |②---|
⑤口口③ |③-④-|
①②口④ |--⑤-|
14
口口口口 |--①-|
口口③④ |--②-|
口①②口 |③---|
口口口口 |④---|
15
口口口口 |①---|
口口口口 |②---|
⑤口口④ |③-④-|
①②口③ |--⑤-|
16
口口口口 |--①-|
口口③④ |--②-|
口①②口 |③---|
口口口口 |④---|
17
③口②① |①---|
④口口⑤ |②---|
口口口口 |③-④-|
口口口口 |--⑤-|
18
口口口口 |--①-|
口②①口 |--②-|
④③口口 |③---|
口口口口 |④---|
19
口口口口 |①-②-|
⑧⑦⑥⑤ |③-④-|
口口口口 |⑤-⑥-|
①②③④ |⑦-⑧-|
20
口口口口 |----|
口口口口 |----|
口①口② |----|
口口口口 |①-②-|
21
口口⑤④ |①---|
口②③口 |②-③-|
口口①口 |--④-|
口口口口 |--⑤-|
22
②口口口 |--①-|
口①口口 |--②-|
③④口口 |--③-|
口口口口 |--④-|
23
口口口口 |①---|
口⑤③④ |②-③-|
口口口② |--④-|
口口①口 |--⑤-|
24
口口口口 |----|
口口口口 |----|
口口口口 |①-②-|
①③②④ |③-④-|
25
口口口口 |①---|
口③口⑤ |②-③-|
①②口④ |--④-|
口口口口 |--⑤-|
26
口口口口 |--①-|
口②①口 |--②-|
口④口口 |--③-|
口口③口 |--④-|
27
口口口④ |①---|
口②③口 |--②-|
①口口口 |③---|
口口口口 |--④-|
28
口口①口 |①---|
口口口口 |----|
②④③口 |②-③-|
口口⑤口 |④-⑤-|
29
口口⑤④ |①---|
口②③口 |②-③-|
口口口① |--④-|
口口口口 |--⑤-|
30
②口口口 |--①-|
口①口口 |--②-|
③④口口 |--③-|
口口口口 |--④-|
31
口口口口 |①---|
口⑤③④ |②-③-|
口口口② |--④-|
口口①口 |--⑤-|
32
口口口口 |----|
口口口口 |----|
口口口口 |①-②-|
①③②④ |③-④-|
33
口口口口 |①---|
口③口⑤ |②-③-|
①②口④ |--④-|
口口口口 |--⑤-|
34
口口④口 |--①-|
口②①口 |--②-|
口③口口 |--③-|
口口口口 |--④-|
35
口口口① |①---|
口口口口 |----|
口口口口 |----|
口口口口 |----|
36
口口口口 |①-②-|
口口口口 |③-④-|
⑧⑦⑥⑤ |⑤-⑥-|
①②③④ |⑦-⑧-|
37
口②①④ |①---|
口③口口 |②---|
口口口口 |③---|
口口口口 |④---|
38
口口口口 |①---|
口口①口 |----|
口口口口 |②-③-|
②④③⑤ |④-⑤-|
39
口口口口 |①---|
口④②③ |②---|
口①口口 |③---|
口口口口 |④---|
40
口口①口 |①---|
口口口口 |----|
口口口口 |----|
口口口口 |----|
41
口口②① |①-②-|
口口⑥⑤ |--③-|
④③口口 |④---|
口口口口 |⑤-⑥-|
42
口口口口 |--①-|
口口口口 |②---|
③⑤口⑥ |③-④-|
②①④口 |⑤-⑥-|
43
口③口④ |①---|
口②①口 |②---|
口口口口 |③---|
口口口口 |④---|
44
口口①口 |①---|
口口口口 |----|
口口口口 |----|
口口口口 |----|
45
口口口口 |①---|
口口口口 |②---|
口③④口 |③---|
②①①口 |④---|
46
口口口口 |①---|
①④③② |②---|
口口口口 |③---|
口口口口 |④---|
47
口口口口 |①---|
口⑤③④ |②-③-|
口②①口 |--④-|
口口口口 |--⑤-|
48
口口口口 |----|
口口口口 |----|
①②口口 |①---|
口口口口 |②---|
49
口口口口 |①-②-|
⑥⑦口口 |③-④-|
口口⑤口 |⑤---|
①②③④ |⑥-⑦-|
50
口口③口 |①-②-|
口口①② |③---|
④⑤⑥⑦ |④-⑤-|
口口口口 |⑥-⑦-|
51
口口⑤④ |①---|
口③②① |②-③-|
口口口口 |--④-|
口口口口 |--⑤-|
52
口口口口 |----|
口口口口 |----|
口口口口 |----|
口口口口 |----|
53
口口口口 |①---|
口口口口 |②---|
口③④口 |③---|
②①①口 |④---|
54
口口口口 |①---|
①④③② |②---|
口口口口 |③---|
口口口口 |④---|
55
口口口口 |①---|
口⑤③④ |②-③-|
口②①口 |--④-|
口口口口 |--⑤-|
56
口口口口 |----|
口口口口 |----|
①②口口 |①---|
口口口口 |②---|
57
口口口口 |①-②-|
⑥⑦口口 |③-④-|
口口⑤口 |⑤---|
①②③④ |⑥-⑦-|
58
口口③口 |①-②-|
口口①② |③---|
④⑤⑥⑦ |④-⑤-|
口口口口 |⑥-⑦-|
59
口⑤③④ |①---|
口口②① |②-③-|
口口口口 |--④-|
口口口口 |--⑤-|
60
口口口口 |----|
口口口口 |----|
口口口口 |----|
①②口口 |①-②-|
61
口口口口 |①---|
④⑤口口 |②---|
口口③② |③---|
口口①口 |④-⑤-|
62
④⑤③② |①---|
口口①口 |②---|
口口口口 |③---|
口口口口 |④-⑤-|
63
口口口② |①---|
①口口② |--②-|
口口口口 |----|
口口口口 |----|
64
口口口口 |①---|
口①①口 |--②-|
②②口口 |----|
口口口口 |----|
65
口口口口 |①---②-|
口口口口 |--③---|
④⑤⑥口 |④---⑤-|
①②③口 |--⑥---|
66
口口口口 |①---|
①①②② |----|
口口口口 |②---|
口口口口 |----|
67
①②口口 |①-②-|
⑤⑥口口 |--③-|
口口③④ |④---|
口口口口 |⑤-⑥-|
68
口口口口 |--①-|
口口口口 |②---|
③④口口 |③---|
口口①② |④---|
69
口口口口 |①---|
口口口口 |②---|
④④③③ |③---|
①①②② |④---|
70
④④③③ |①---|
①①②② |②---|
口口口口 |③---|
口口口口 |④---|
71
口口口口 |①---|
口口口口 |②---|
⑤口口③ |③-④-|
①②口④ |--⑤-|
72
口口口口 |--①-|
口口③④ |--②-|
口①②口 |③---|
口口口口 |④---|
73
口口口口 |①---|
口口口口 |②---|
⑤口口④ |③-④-|
①②口③ |--⑤-|
74
口口口口 |--①-|
口口③④ |--②-|
口①②口 |③---|
口口口口 |④---|
75
③口②① |①---|
④口口⑤ |②---|
口口口口 |③-④-|
口口口口 |--⑤-|
76
口口口口 |--①-|
口②①口 |--②-|
④③口口 |③---|
口口口口 |④---|
77
口口口口 |①-②-|
口口口口 |③-④-|
⑧⑦⑥⑤ |⑤-⑥-|
①②③④ |⑦-⑧-|
78
口口口口 |①-②-|
口口口口 |③-④-|
⑧⑦⑥⑤ |⑤-⑥-|
①②③④ |⑦-⑧-|
79
⑧⑦⑥⑤ |①-②-|
①②③④ |③-④-|
口口口口 |⑤-⑥-|
口口口口 |⑦-⑧-|
80
⑧⑦⑥⑤ |①-②-|
①②③④ |③-④-|
口口口口 |⑤-⑥-|
口口口口 |⑦-⑧-|
81
口口口口 |①---|
口口口口 |----|
口①①口 |----|
口口口口 |----|


不确定度: 0

最終更新:2012年11月27日 22:11