Dragontail Butterfly
Tom-H@ck feat.Nadia

BASIC

Level: 4
BPM: 170
Notes: 278

1
口口口口 |----|
口口口口 |----|
口口口口 |----|
口口口口 |----|
2
口口口口 |①---|
口②②口 |----|
口口口口 |②---|
口①①口 |----|
3
口口口口 |①---|
口口口口 |②---|
①②③④ |③---|
口口口口 |④---|
4
口口口口 |----|
口口口口 |----|
口口口口 |----|
口口口口 |----|
5
口口口口 |----|
口口口口 |----|
口口口口 |----|
口口口口 |----|
6
口口口口 |①---|
口口口口 |②---|
①②④③ |③---|
口口口口 |④---|
7
口口口口 |①---|
口①②口 |----|
口口口口 |②---|
口口口口 |----|
8
口口口口 |①---|
口口口口 |②---|
①②④③ |③---|
口口口口 |④---|
9
口口口口 |①---|
口①②口 |----|
口口口口 |②---|
口口口口 |----|
10
①①口口 |①---|
口口②② |----|
口口口口 |②---|
口口口口 |----|
11
口口口口 |①---|
口口口口 |②---|
①②③④ |③---|
口口口口 |④---|
12
口口②② |①---|
①①口口 |----|
口口口口 |②---|
口口口口 |----|
13
口口口口 |①---|
口口口口 |②---|
④③②① |③---|
口口口口 |④---|
14
口口口口 |①---|
②②口口 |----|
口口①① |②---|
口口口口 |----|
15
①②③④ |①---|
口口口口 |②---|
口口口口 |③---|
口口口口 |④---|
16
口口口口 |①---|
口①口口 |----|
口口②口 |②---|
口口口口 |----|
17
口口口口 |①---|
口口口口 |----|
口口口口 |②---|
口①②口 |----|
18
口口口口 |①---|
口①①口 |--②-|
口②②口 |----|
口口口口 |----|
19
口口口口 |①---|
口口口口 |--②-|
①口口① |----|
②口口② |----|
20
口口口口 |----|
口口口口 |----|
口口口口 |----|
口口口口 |----|
21
口口口口 |----|
口口口口 |----|
口①①口 |----|
口口口口 |①---|
22
①口口① |①---|
②口口② |--②-|
口口口口 |----|
口口口口 |----|
23
口口口口 |①---|
口口口口 |--②-|
口①①口 |----|
口②②口 |----|
24
口③③口 |①---|
口口口口 |②---|
①口口② |③---|
口口口口 |----|
25
④口口④ |①---|
口③③口 |②---|
①口口② |③---|
口口口口 |--④-|
26
口口口口 |----|
①口口① |--①-|
②②②② |----|
口口口口 |②---|
27
口口口口 |----|
口口口口 |----|
口口口口 |----|
口①①口 |①---|
28
②口口② |①---|
口口口口 |----|
口①①口 |②---|
口口口口 |----|
29
口①②口 |①---|
口③④口 |②---|
口口口口 |③---|
口口口口 |④---|
30
口口口口 |①---|
口口口口 |②---|
①②③④ |③---|
口口口口 |④---|
31
口口口口 |①---|
口①②口 |----|
口口口口 |②---|
口口口口 |----|
32
口口口口 |①---|
②口口② |----|
口①①口 |②---|
口口口口 |----|
33
口①②口 |①---|
口③④口 |②---|
口口口口 |③---|
口口口口 |④---|
34
口口口口 |----|
口口口口 |①---|
①①②② |----|
口口口口 |②---|
35
口口口口 |----|
口口口口 |①---|
③口口口 |②---|
①口口② |③---|
36
口④口口 |①---|
②口口③ |②---|
口口口① |③---|
口口口口 |④---|
37
口口①口 |①---|
口口口口 |----|
口口口口 |----|
口口口口 |----|
38
口口口口 |----|
口口口口 |----|
口①①口 |----|
口口口口 |①---|
39
口口口口 |①---|
口①①口 |----|
口口口口 |----|
口口口口 |----|
40
口口口口 |----|
①口口① |----|
口口口口 |----|
口口口口 |①---|
41
口口口口 |①---|
口口口口 |----|
①口口① |----|
口口口口 |----|
42
口口口口 |----|
口①①口 |----|
口口口口 |----|
口口口口 |①---|
43
口口口口 |①---|
口口口口 |----|
口①①口 |----|
口口口口 |----|
44
口口口口 |----|
口口口口 |----|
口口口口 |----|
口①①口 |①---|
45
①口口① |①---|
②口口② |----|
口口口口 |②---|
口口口口 |----|
46
口①①口 |①---|
口②②口 |②---|
口③③口 |③---|
口④④口 |④---|
47
口口口口 |①---|
口口口口 |②---|
③口口④ |③---|
①口口② |④---|
48
口①①口 |①---|
口②②口 |----|
口③③口 |②---|
口口口口 |--③-|
49
口口口口 |----|
①口口① |①---|
②口口② |--②-|
口口口口 |----|
50
口口口口 |①---|
口口口口 |②---|
口③④口 |③---|
口①②口 |④---|
51
③③口口 |①---|
口①②口 |②---|
口口口口 |③---|
口口口口 |----|
52
口口口口 |----|
①①①口 |--①-|
口口口口 |----|
口口口口 |----|
53
口口口口 |----|
口口口口 |①---|
①①①① |----|
口口口口 |----|
54
口口口口 |--①-|
口口口口 |--②-|
口口口口 |--③-|
①②③口 |----|
55
口口口口 |--①-|
口口口口 |--②-|
口③②① |--③-|
口口口口 |----|
56
①①①① |--①-|
口口口口 |----|
口口口口 |----|
口口口口 |----|
57
口口口口 |--①-|
口口口口 |--②-|
口口口口 |--③-|
①②③④ |--④-|
58
口口口口 |--①-|
④③②① |--②-|
口口口口 |--③-|
口口口口 |--④-|
59
口口口口 |--①-|
口口口口 |--②-|
①②③④ |--③-|
口口口口 |--④-|
60
④③②① |--①-|
口口口口 |--②-|
口口口口 |--③-|
口口口口 |--④-|
61
口口口口 |--①-|
口②①口 |--②-|
口④③口 |--③-|
口口口口 |--④-|
62
口口口口 |--①-|
口口口口 |--②-|
④口口③ |--③-|
②口口① |--④-|
63
口③③口 |--①-|
②口口① |--②-|
口口口口 |--③-|
口口口口 |----|
64
②口口② |--①-|
口①①口 |----|
口③③口 |②---|
口口口口 |--③-|
65
口口口口 |--①-|
①②③④ |--②-|
口口口口 |--③-|
口口口口 |--④-|
66
口口口口 |--①-|
口口口口 |--②-|
口③④口 |--③-|
口①②口 |--④-|
67
口③口口 |--①-|
口①②口 |--②-|
口口口口 |--③-|
口口口口 |----|
68
②口口② |--①-|
口①①口 |----|
口③③口 |②---|
口口口口 |--③-|
69
口口口口 |--①-|
①②③④ |--②-|
口口口口 |--③-|
口口口口 |--④-|
70
口口口口 |----|
口口口口 |--①-|
①①②② |----|
口口口口 |--②-|
71
口口口口 |----|
口口口口 |--①-|
口口口口 |--②-|
口①②口 |----|
72
③口口③ |①---|
②口口② |--②-|
口①①口 |----|
口口口口 |③---|
73
口口口口 |--①-|
口①①口 |----|
口口口口 |----|
口口口口 |----|
74
口口口口 |----|
口口口口 |----|
口①①口 |----|
口口口口 |--①-|
75
口口口口 |--①-|
①口口① |----|
口口口口 |----|
口口口口 |----|
76
①口口① |----|
口口口口 |----|
口口口口 |----|
口口口口 |--①-|
77
口口口口 |--①-|
口①①口 |----|
口口口口 |----|
口口口口 |----|
78
口口口口 |----|
口口口口 |----|
①口口① |----|
口口口口 |--①-|
79
口口口口 |--①-|
口口口口 |----|
口口口口 |----|
口①①口 |----|
80
口口口口 |----|
口口口口 |----|
口①①口 |----|
口口口口 |--①-|
81
①口口① |--①-|
②口口② |----|
口口口口 |--②-|
口口口口 |----|
82
口①①口 |--①-|
口②②口 |--②-|
口③③口 |--③-|
口④④口 |--④-|


不确定度: 0

最終更新:2012年11月27日 22:10