Dragontail Butterfly
Tom-H@ck feat.Nadia

ADVANCED

Level: 7
BPM: 170
Notes: 534

1
口口口口 |----|
口口口口 |----|
口口口口 |----|
口口口口 |----|
2
口③口口 |①-②-|
⑦口④⑦ |③-④-|
口⑤②口 |⑤-⑥-|
①①⑥口 |--⑦-|
3
口口口口 |--①-|
口④⑤口 |--②-|
口②③口 |③-④-|
①口口① |⑤---|
4
①口口① |①---|
口口口口 |----|
口口口口 |----|
口口口口 |----|
5
④口口④ |①--②|
口③③口 |--③-|
口②②口 |④---|
口①①口 |----|
6
口⑦④口 |①-②-|
口⑥③口 |③-④-|
口⑤②口 |--⑤-|
口口①口 |⑥-⑦-|
7
口口口口 |--①-|
①口口② |②-③-|
③口口④ |④-⑤-|
⑤口口⑥ |⑥---|
8
口③⑥口 |--①-|
口②⑤口 |②-③-|
口①④口 |--④-|
口口口口 |⑤-⑥-|
9
⑤口口⑤ |--①-|
④口口③ |②-③-|
②口口① |④---|
口口口口 |⑤---|
10
口②①口 |--①-|
②口口① |--②-|
③口口④ |--③-|
口③④口 |--④-|
11
①口口口 |--①-|
口③②口 |②-③-|
口⑤④口 |④-⑤-|
⑦口口⑥ |⑥-⑦-|
12
口①②口 |--①-|
①口口② |--②-|
④口口③ |--③-|
口④③口 |--④-|
13
口口口① |--①-|
口②③口 |②-③-|
口④⑤口 |④-⑤-|
⑥口口⑦ |⑥-⑦-|
14
口②①口 |--①-|
②口口① |--②-|
③口口④ |--③-|
口③④口 |--④-|
15
①口口口 |--①-|
口③②口 |②-③-|
口⑤④口 |④-⑤-|
⑦口口⑥ |⑥-⑦-|
16
口口①① |①---|
口口②口 |--②-|
口口口口 |③---|
口③口④ |--④-|
17
①①口口 |①---|
口②口口 |--②-|
口口口口 |③---|
口口③口 |----|
18
口口口⑤ |①-②-|
口口①① |③-④-|
⑥②③⑦ |--⑤-|
④④口口 |⑥-⑦-|
19
口口口口 |①-②-|
①①口口 |③-④-|
口③②口 |----|
口口④④ |----|
20
④口口① |①-②-|
⑤⑦⑦② |③-④-|
⑥口口③ |⑤-⑥-|
口口口口 |--⑦-|
21
口⑤⑤口 |--①-|
口口口口 |②-③-|
口①②口 |④---|
口③④口 |⑤---|
22
口口口口 |①-②-|
口口①① |③-④-|
⑤②③⑤ |--⑤-|
④④口口 |----|
23
口口口口 |①-②-|
①①口口 |③-④-|
口③②口 |----|
口口④④ |----|
24
①口口① |①---|
口②②口 |----|
口②②口 |②---|
口口口口 |----|
25
③口口③ |①---|
口②②口 |----|
口②②口 |②---|
①口口① |--③-|
26
口口口口 |----|
①口口① |--①-|
②口口② |----|
口口口口 |②---|
27
口口口口 |----|
口口口口 |----|
口口口口 |--①-|
口②①口 |②---|
28
①口口① |①---|
口②②口 |--②-|
口口口口 |----|
③口口③ |③---|
29
④口⑤⑤ |--①②|
⑥⑥③口 |③-④-|
口②口口 |⑤---|
口口①口 |⑥---|
30
口⑤⑤口 |--①-|
口口口口 |②-③-|
④口口① |④---|
口③②口 |⑤---|
31
口口口口 |①---|
口①①口 |②-③-|
②②③③ |----|
口④④口 |④---|
32
①口口① |①---|
口②②口 |--②-|
口口口口 |----|
③口口③ |③---|
33
⑤⑤⑥⑥ |--①-|
口口④口 |②③④-|
口③口口 |⑤---|
口①②口 |⑥---|
34
口口口口 |--①-|
⑥口口③ |②-③-|
⑤口口② |--④-|
④口口① |⑤-⑥-|
35
口①口口 |--①-|
口③②口 |②-③-|
口⑤④口 |④-⑤-|
⑦⑦⑥口 |⑥-⑦-|
36
口口口① |--①-|
②口口③ |②-③-|
④口口⑤ |④-⑤-|
⑥⑥口口 |⑥---|
37
口口口口 |①---|
口口口口 |----|
口口口口 |----|
口口①① |----|
38
口口口口 |----|
口口口口 |----|
口口口口 |----|
①口口① |①---|
39
口⑤口口 |①-②-|
①⑥④① |③-④-|
⑦口③⑦ |⑤-⑥-|
口口②口 |--⑦-|
40
口口⑤⑤ |--①-|
口④口口 |--②-|
口②③口 |③-④-|
①口口① |⑤---|
41
①①⑤口 |①-②-|
⑦④⑥⑦ |③-④-|
口③口口 |⑤-⑥-|
口②口口 |--⑦-|
42
口⑤⑤口 |--①-|
口口④口 |--②-|
①③②① |③-④-|
口口口口 |⑤---|
43
口⑤口口 |①-②-|
⑦⑥④⑦ |③-④-|
口口③口 |⑤-⑥-|
①口②① |--⑦-|
44
口口口口 |--①-|
口口口口 |--②-|
①③④① |--③-|
②口口② |④---|
45
①口口① |①---|
口②口口 |--②-|
口口口口
口口口口

④④口口
口口③口
口口口口 |③---|
口口口口 |--④-|
46
⑦口口⑦ |①-②-|
⑥⑥③③ |③-④-|
②②⑤⑤ |⑤-⑥-|
④④①① |⑦---|
47
口⑧口口 |①-②-|
口⑥⑦① |③-④-|
口④⑤口 |⑤-⑥-|
口②③口 |⑦-⑧-|
48
口口口① |①-②-|
②⑧⑤口 |③-④-|
口口⑥③ |⑤-⑥-|
④口⑦口 |⑦-⑧-|
49
⑥口口③ |①-②-|
⑦口口④ |③-④-|
⑧①口⑤ |⑤-⑥-|
口②口口 |⑦-⑧-|
50
⑦口①口 |①-②-|
口口②⑥ |③-④-|
口⑤③口 |⑤-⑥-|
口口⑧④ |⑦-⑧-|
51
口③④口 |①-②-|
口口②口 |③-④-|
①口口口 |⑤-⑥-|
⑤⑥⑦⑧ |⑦-⑧-|
52
⑧口口口 |①-②-|
④⑤⑥⑦ |③-④-|
①②③口 |⑤-⑥-|
口口口口 |⑦-⑧-|
53
口①②口 |①-②-|
口口口口 |③-④-|
⑦⑧口口 |⑤-⑥-|
③④⑤⑥ |⑦-⑧-|
54
口④④口 |①-②-|
②⑥⑥③ |③-④-|
⑤口①口 |--⑤-|
口口口口 |⑥---|
55
口④④口 |①-②-|
③⑥⑥② |③-④-|
口①①⑤ |--⑤-|
口口口口 |⑥---|
56
口口口口 |①-②-|
口口口口 |----|
口①①口 |----|
②②②② |----|
57
口口口口 |----|
口①①口 |----|
口①①口 |①---|
口口口口 |----|
58
口①⑤口 |--①-|
口⑥②口 |②-③-|
口③⑦口 |④-⑤-|
口口④口 |⑥-⑦-|
59
②口口⑥ |①-②-|
⑦口口③ |③-④-|
④口口⑧ |⑤-⑥-|
口①口⑤ |⑦-⑧-|
60
口口口④ |----|
⑤③口口 |①-②-|
口口②⑥ |③-④-|
口①口口 |⑤-⑥-|
61
口口②口 |①-②-|
口③口⑥ |③-④-|
⑦口④口 |⑤-⑥-|
①⑤口口 |⑦---|
62
①②④③ |--①-|
⑤⑥口⑦ |②-③-|
口口口口 |④-⑤-|
口口口口 |⑥-⑦-|
63
口口口口 |①-②-|
口口①口 |③-④-|
②③⑤④ |⑤---|
口⑥⑥口 |⑥---|
64
①①①① |--①-|
②②②② |----|
③口口③ |②---|
③口口③ |--③-|
65
④口⑤⑤ |----|
⑥⑥③口 |①②③-|
口②口口 |④-⑤-|
口口①口 |--⑥-|
66
口口口口 |----|
口口口口 |①-②-|
①⑤⑤④ |③-④-|
口②③口 |--⑤-|
67
口①①口 |--①-|
③③②② |--②-|
口口口口 |③---|
口④④口 |--④-|
68
②口口② |--①-|
③口口③ |----|
①口口① |②---|
口口口口 |--③-|
69
⑤⑤⑥⑥ |----|
口口④口 |①-②③|
口③口口 |④-⑤-|
口①②口 |--⑥-|
70
口口口口 |----|
口口口③ |①-②-|
⑤口口② |③---|
④口口① |④-⑤-|
71
口②口口 |①---|
①④③口 |②-③-|
口⑥⑤口 |④-⑤-|
口口⑦口 |⑥-⑦-|
72
口口②② |①---|
③③③③ |--②-|
口口口口 |----|
①①口口 |③---|
73
口口口口 |--①-|
口口口口 |----|
口①①口 |----|
口①①口 |----|
74
口口口口 |----|
口口口口 |----|
口①①口 |----|
口口口口 |--①-|
75
①口口① |--①-|
口口口口 |----|
口口口口 |----|
口口口口 |----|
76
①口口① |----|
口口口口 |----|
口口口口 |----|
口口口口 |--①-|
77
口口口口 |--①-|
口口口口 |----|
口①①口 |----|
口口口口 |----|
78
口口口口 |----|
①口口① |----|
口口口口 |----|
口口口口 |--①-|
79
口口口口 |--①-|
口口口口 |----|
口口口口 |----|
口①①口 |----|
80
口口口口 |----|
口口口口 |----|
口①②口 |----|
口口口口 |①-②-|
81
①口口① |--①-|
口②③口 |----|
口口口口 |②-③-|
口口口口 |----|
82
①①口口 |①-②-|
口口④④ |③-④-|
③③口口
口口②②

⑧⑧⑧⑧
⑦⑦口口
口口⑥⑥ |⑤-⑥-|
⑤⑤口口 |⑦-⑧-|


不确定度: 0

最終更新:2012年11月27日 22:10