Beastie Starter
GUHROOVY

BASIC

Level: 5
BPM: 190
Notes: 339

1
口口口口 |----|
口口口口 |----|
口口口口 |----|
口口口口 |----|
2
口口口口 |①---|
口②口口 |----|
口①口口 |②---|
口口口口 |----|
3
口②口口 |①---|
口口口口 |----|
口①口口 |②---|
口口口口 |----|
4
口口口口 |①---|
口口②口 |----|
口口①口 |②---|
口口口口 |----|
5
口口②口 |①---|
口口口口 |----|
口口①口 |②---|
口口口口 |----|
6
口口口口 |①---|
口②口口 |----|
口①口口 |②---|
口口口口 |----|
7
口②口口 |①---|
口口口口 |----|
口①口口 |②---|
口口口口 |----|
8
口口口口 |①---|
口口②口 |----|
口口①口 |②---|
口口口口 |----|
9
③口口③ |--①-|
②口口② |----|
口口口口 |②---|
①口口① |③---|
10
口口口口 |①---|
口②②口 |----|
口①①口 |②---|
口口口口 |----|
11
口②②口 |①---|
口口口口 |----|
口①①口 |②---|
口口口口 |----|
12
口口口口 |①---|
口②②口 |----|
口①①口 |②---|
口口口口 |----|
13
口②②口 |①---|
口口口口 |----|
③①①③ |②---|
口口口口 |--③-|
14
口口口口 |①---|
口②②口 |----|
口①①口 |②---|
口口口口 |----|
15
口②②口 |①---|
口口口口 |----|
口①①口 |②---|
口口口口 |----|
16
口口口口 |①---|
口②②口 |----|
口①①口 |②---|
口口口口 |----|
17
④口口④ |①---|
口口口口 |----|
③①①③ |②--③|
口②②口 |--④-|
18
口口口口 |①---|
口②②口 |----|
口①①口 |②---|
口口口口 |----|
19
口口口口 |①---|
口②②口 |----|
口①①口 |②---|
口口口口 |----|
20
口口口口 |①---|
口②②口 |----|
口①①口 |②---|
口口口口 |----|
21
③②②③ |①---|
③口口③ |----|
口①①口 |②---|
口口口口 |③---|
22
口口口口 |①---|
口②②口 |----|
口①①口 |②---|
口口口口 |----|
23
口②②口 |①---|
口口口口 |----|
口①①口 |②---|
口口口口 |----|
24
口口口口 |①---|
③口口③ |--②-|
②口口② |--③-|
口①①口 |----|
25
④口口④ |①---|
口③③口 |②-③-|
口②②口 |--④-|
①口口① |----|
26
②②口口 |①---|
口口口口 |----|
口口口口 |②---|
口①口口 |----|
27
口口①口 |①---|
口口口口 |----|
口口口口 |②---|
口口②② |----|
28
②②口口 |①---|
口口口口 |----|
口口口口 |②---|
口①口口 |----|
29
口口①口 |①---|
口③③口 |----|
口③③口 |②---|
口口②② |③---|
30
口①口口 |①---|
口口口口 |----|
口口口口 |②---|
②②口口 |----|
31
口口②② |①---|
口口口口 |----|
口口口口 |②---|
口口①口 |----|
32
口①口口 |①---|
口口口口 |----|
口口口口 |②---|
②②口口 |----|
33
口⑤⑤口 |①---|
④②口④ |②---|
③①②③ |③-④-|
口口①口 |--⑤-|
34
口口口口 |①---|
口口口口 |②---|
口口口口 |③---|
④③②① |④---|
35
口口口口 |①---|
口口口口 |②---|
①②③④ |③---|
口口口口 |④---|
36
口口口口 |①---|
④③②① |②---|
口口口口 |③---|
口口口口 |④---|
37
①②③④ |①---|
口口口④ |②---|
口口口口 |③---|
口口口口 |④---|
38
口口口口 |①---|
口口口口 |②---|
口口口口 |③---|
①②③④ |④---|
39
口口口口 |①---|
口口口口 |②---|
④③②① |③---|
口口口口 |④---|
40
口口③④ |①---|
①②③④ |②---|
口口口口 |③---|
口口口口 |④---|
41
口口口口 |①---|
口口口口 |----|
①①①① |②---|
②②②② |----|
42
口口口口 |①---|
口①②口 |----|
口口口口 |②---|
口口口口 |----|
43
口口口口 |①---|
口口口口 |----|
口①②口 |②---|
口口口口 |----|
44
①口口② |①---|
口口口口 |----|
口口口口 |②---|
口口口口 |----|
45
口口口口 |①---|
口口口口 |----|
口口口口 |②---|
①口口② |----|
46
口口口口 |①---|
口①②口 |----|
口口口口 |②---|
口口口口 |----|
47
口口口口 |①---|
口口口口 |----|
口①②口 |②---|
口口口口 |----|
48
①口口② |①---|
口口口口 |----|
口口口口 |②---|
口口口口 |----|
49
口口口口 |①---|
口②②口 |----|
口①①口 |②---|
口口口口 |----|
50
①口口② |①---|
①口口口 |----|
口口口① |②---|
口口口① |----|
51
口口口口 |①---|
口口口口 |----|
口口口口 |②---|
②口口① |----|
52
①口口② |①---|
口口口口 |----|
口口口口 |②---|
口口口口 |----|
53
口口口口 |①---|
口口口口 |----|
口口口口 |②---|
②口口① |----|
54
①口口② |①---|
口口口口 |----|
口口口口 |②---|
口口口口 |----|
55
口口口口 |①---|
口口口口 |----|
口口口口 |②---|
②口口① |----|
56
①口口② |①---|
口口口口 |----|
口口口口 |②---|
口口口口 |----|
57
口口口口 |①---|
口口口口 |----|
口口口口 |②---|
②口口① |----|
58
口口口口 |①---|
①②③口 |②---|
口口口口 |③---|
口口口口 |----|
59
口口口口 |①---|
口口口口 |②-③-|
口④②① |④---|
口③口口 |----|
60
口口口口 |①---|
①②③口 |②---|
口口口口 |③---|
口口口口 |----|
61
口口口口 |①---|
口口口口 |②-③-|
口④②① |④---|
口③口口 |----|
62
口口口口 |①---|
①②③口 |②---|
口口口口 |③---|
口口口口 |----|
63
口口口口 |①---|
口口口口 |②-③-|
口④②① |④---|
口③口口 |----|
64
口口口口 |①---|
①口口口 |----|
口口口② |②---|
口口口口 |----|
65
口④④口 |①---|
口③③口 |②---|
口②②口 |③---|
口①①口 |④---|
66
口口口① |①-②-|
②⑤口口 |--③-|
③④口口 |--④-|
口口口口 |--⑤-|
67
口口口口 |--①-|
口口④① |--②-|
口口③② |--③-|
口口口口 |--④-|
68
口口口口 |--①-|
①④口口 |--②-|
②③口口 |--③-|
口口口口 |--④-|
69
口口口口 |--①-|
口口④① |--②-|
口口③② |--③-|
口口口口 |--④-|
70
口口口口 |--①-|
①④口口 |--②-|
②③口口 |--③-|
口口口口 |--④-|
71
口口口口 |--①-|
口口④① |--②-|
口口③② |--③-|
口口口口 |--④-|
72
口口口口 |--①-|
①④口口 |--②-|
②③口口 |--③-|
口口口口 |--④-|
73
口②②口 |--①-|
③口口③ |--②-|
③口口③ |--③-|
口①①口 |----|
74
①④口口 |--①-|
口口口口 |--②-|
口口口口 |--③-|
②③口口 |--④-|
75
口口④① |--①-|
口口口口 |--②-|
口口口口 |--③-|
口口③② |--④-|
76
①④口口 |--①-|
口口口口 |--②-|
口口口口 |--③-|
②③口口 |--④-|
77
口口④① |--①-|
口口口口 |--②-|
口口口口 |--③-|
口口③② |--④-|
78
①④口口 |--①-|
口口口口 |--②-|
口口口口 |--③-|
②③口口 |--④-|
79
口口④① |--①-|
口口口口 |--②-|
口口口口 |--③-|
口口③② |--④-|
80
①④口口 |--①-|
口口口口 |--②-|
口口口口 |--③-|
②③口口 |--④-|
81
④口口④ |--①-|
口②②口 |--②-|
口①①口 |--③-|
③口口③ |--④-|
82
口口口口 |①---|
①口口② |----|
①口口② |②---|
口口口口 |----|
83
口口口口 |①---|
口①②口 |----|
口①②口 |②---|
口口口口 |----|
84
口口口口 |①---|
①口口② |----|
①口口② |②---|
口口口口 |----|
85
口口口口 |①---|
口①②口 |----|
口①②口 |②---|
③③③③ |③---|
86
①①①① |①---|
口口口口 |----|
口口口口 |----|
口口口口 |----|


不确定度: 0

最終更新:2012年11月27日 22:07