Plum
肥塚良彦

BASIC

Level: 4
BPM: 256
Notes: 301

1
口口口口 |----|
口口口口 |----|
口口口口 |----|
口口口口
2
口口口口 |----|
口口口口 |----|
口口口口 |----|
口口口口
3
①①①① |①---|
口口口口 |----|
口口口口 |----|
口口口口
4
口口口口 |①---|
①①①① |----|
口口口口 |----|
口口口口
5
口口口口 |①---|
口口口口 |----|
①①①① |----|
口口口口
6
口口口口 |①---|
口口口口 |----|
口口口口 |----|
①①①①
7
①②③口 |①---|
口口口口 |②---|
口口口口 |③---|
口口口口
8
口口口口 |①---|
口③②① |②---|
口口口口 |③---|
口口口口
9
口口口口 |①---|
口口口口 |②---|
①②③口 |③---|
口口口口
10
口口口口 |①---|
口口口口 |----|
口口口口 |----|
口①①口
11
①②③口 |①---|
口口口口 |②---|
口口口口 |③---|
口口口口
12
口口口口 |①---|
口③②① |②---|
口口口口 |③---|
口口口口
13
口口口口 |①---|
口口口口 |②---|
①②③口 |③---|
口口口口
14
口口口口 |①---|
口口口口 |②---|
口口口口 |③---|
口③②①
15
口①①口 |①---|
口口口口 |----|
口口口口 |----|
口口口口
16
口口口口 |①---|
①口口① |----|
口口口口
口口口口
17
口①①口 |①---|
口口口口 |----|
口口口口 |----|
口口口口
18
口口口口 |①---|
口口口口 |----|
①口口①
口口口口
19
口①①口 |①---|
口口口口 |----|
口口口口 |----|
口口口口
20
口口口口 |①---|
口口口口 |----|
口口口口
①口口①
21
口①①口 |①---|
口口口口 |----|
口口口口 |----|
口口口口
22
口口口口 |①---|
①口口① |----|
口口口口
口口口口
23
口①①口 |①---|
口口口口 |----|
口口口口 |----|
口口口口
24
口口口口 |①---|
口口口口 |----|
①口口①
口口口口
25
口①①口 |①---|
口口口口 |----|
口口口口 |----|
口口口口
26
口口口口 |①---|
口口口口 |----|
口口口口
①口口①
27
口①①口 |①---|
口口口口 |----|
口口口口 |----|
口口口口
28
口口口口 |①---|
口口口口 |----|
口口口口
口①①口
29
口口口口 |①---|
①口口① |----|
口口口口 |----|
口口口口
30
①口口① |①---|
口口口口 |----|
口口口口
口口口口
31
口口口口 |----|
口口口口 |①---|
①口口口 |----|
口口口口
32
①口口口 |①---|
口口口口 |----|
口口口口 |----|
口口口口
33
口口口口 |----|
口口口口 |①---|
口口口① |----|
口口口口
34
口口口① |①---|
口口口口 |----|
口口口口 |----|
口口口口
35
口口口口 |----|
口口口口 |①---|
口①①口 |----|
口口口口
36
口①①口 |①---|
口口口口 |----|
口口口口 |----|
口口口口
37
口口口口 |①---|
口口口口 |----|
口口口口 |----|
口①①口
38
①口口① |①---|
口口口口 |----|
口口口口 |----|
口口口口
39
口口口口 |①---|
口①①口 |----|
口口口口 |----|
口口口口
40
口口口口 |①---|
口口口口 |----|
口①①口 |----|
口口口口
41
口口口口 |①---|
口口口口 |----|
口口口口 |----|
口①①口
42
①口口① |①---|
口口口口 |----|
口口口口 |----|
口口口口
43
口口口口 |①---|
①口口① |----|
口口口口 |----|
口口口口
44
口口口口 |①---|
口口口口 |----|
①口口① |----|
口口口口
45
口①①口 |①---|
口口口口 |----|
口口口口 |----|
口口口口
46
①口口① |①---|
口口口口 |----|
口口口口 |----|
口口口口
47
口口口口 |----|
口口口口 |①---|
①口口口 |----|
口口口口
48
①口口口 |①---|
口口口口 |----|
口口口口 |----|
口口口口
49
口口口口 |----|
口口口口 |①---|
口口口① |----|
口口口口
50
口口口① |①---|
口口口口 |----|
口口口口 |----|
口口口口
51
口口口口 |----|
口口口口 |①---|
口①①口 |----|
口口口口
52
口①①口 |①---|
口口口口 |----|
口口口口 |----|
口口口口
53
口口口口 |①---|
口口口口 |----|
口口口口 |----|
口①①口
54
①口口① |①---|
口口口口 |----|
口口口口 |----|
口口口口
55
口口口口 |①---|
口①①口 |----|
口口口口 |----|
口口口口
56
口口口口 |①---|
口口口口 |----|
口①①口 |----|
口口口口
57
口口口口 |①---|
口口口口 |----|
口口口口 |----|
口①①口
58
①口口① |①---|
口口口口 |----|
口口口口 |----|
口口口口
59
口口口口 |①---|
口口口口 |----|
口口口口 |----|
口①①口
60
口口口口 |①---|
口口口口 |----|
口①①口 |----|
口口口口
61
口口口口 |①---|
口①①口 |----|
口口口口 |----|
口口口口
62
口①①口 |①---|
口口口口 |----|
口口口口 |----|
口口口口
63
口口口口 |①---|
口口口口 |----|
口口口口 |----|
①口口①
64
口口口口 |①---|
口口口口 |----|
①口口① |----|
口口口口
65
口口口口 |①---|
①口口① |----|
口口口口 |----|
口口口口
66
①口口① |①---|
口②③口 |②---|
口口口口 |③---|
口口口口
67
口口口口 |①---|
口口口口 |----|
口口口口 |----|
①①①①
68
口口口口 |①---|
口口口口 |----|
①①①① |----|
口口口口
69
口口口口 |①---|
口①①口 |----|
口口口口 |----|
口口口口
70
①①①① |①---|
口口口口 |----|
口口口口 |----|
口口口口
71
口口口口 |①---|
口口口口 |----|
口①①口 |----|
口口口口
72
口口口口 |①---|
①口口① |----|
口口口口
口口口口
73
口口口口 |①---|
口口口口 |----|
口口口口 |----|
口①①口
74
①口口① |①---|
口口口口 |----|
口口口口
口口口口
75
口口口口 |①---|
口口口口 |----|
口口口口 |----|
①口口①
76
口口口口 |①---|
口口口口 |----|
口①①口 |----|
口口口口
77
口口口口 |①---|
①口口① |----|
口口口口 |----|
口口口口
78
口①①口 |①---|
口口口口 |----|
口口口口 |----|
口口口口
79
口口口口 |①---|
口口口口 |----|
口①①口 |----|
口口口口
80
口口口口 |①---|
①口口① |----|
口口口口
口口口口
81
口口口口 |①---|
口口口口 |----|
口口口口 |----|
口①①口
82
①口口① |①---|
口口口口 |----|
口口口口
口口口口
83
口口口口 |①---|
口口口口 |----|
口口口口 |----|
①口口①
84
口口口口 |①---|
口口口口 |----|
口①①口 |----|
口口口口
85
口口口口 |①---|
①口口① |----|
口口口口 |----|
口口口口
86
口①①口 |①---|
口口口口 |----|
口口口口 |----|
口口口口
87
口口口口 |①---|
口口口口 |----|
口口口口 |----|
口①①口
88
①口口① |①---|
口口口口 |----|
口口口口 |----|
口口口口
89
口口口口 |①---|
口口口口 |----|
①口口① |----|
口口口口
90
口①①口 |①---|
口口口口 |----|
口口口口 |----|
口口口口
91
口口口口 |①---|
口口口口 |----|
口口口口 |----|
①口口①
92
①口口① |①---|
口口口口 |----|
口口口口 |----|
口口口口
93
口口口口 |①---|
①口口① |----|
口口口口 |----|
口口口口
94
口①①口 |①---|
口口口口 |----|
口口口口 |----|
口口口口
95
口口口口 |①---|
口口口口 |----|
口口口口 |----|
口①①口
96
口①①口 |①---|
口口口口 |----|
口口口口 |----|
口口口口
97
口口口口 |①---|
口口口口 |----|
口口口口 |----|
①口口①
98
①口口① |①---|
②口口② |--②-|
口口口口 |----|
口口口口
99
口口口口 |①---|
口口口口 |----|
①口口① |----|
口口口口
100
口口口口 |----|
口口口口 |----|
口口口口 |----|
口口口口
101
口口口口 |----|
口口口口 |----|
口口口口 |----|
口口口口
102
口口口口 |----|
口口口口 |----|
口口口口 |----|
口口口口
103
口口口口 |----|
口①口口 |①---|
口口口口 |----|
口口口口
104
口口口口 |①---|
口口①口 |----|
口口口口 |----|
口口口口
105
口口口口 |----|
口①口口 |①---|
口口口口 |----|
口口口口
106
口口口口 |①---|
口口①口 |----|
口口口口 |----|
口口口口
107
口口口口 |①---|
口口口口 |----|
口①口口 |----|
口口口口
108
口口口口 |①---|
口口口口 |----|
口口①口 |----|
口口口口
109
口口口口 |①---|
①口口口 |----|
口口口口 |----|
口口口口
110
口口口口 |①---|
口口口① |----|
口口口口 |----|
口口口口
111
口口口口 |①---|
口口口口 |----|
口口口口 |----|
口①①口
112
口口口口 |①---|
口口口口 |----|
口①①口 |----|
口口口口
113
口口口口 |①---|
口①①口 |----|
口口口口 |----|
口口口口
114
口①①口 |①---|
口口口口 |----|
口口口口 |----|
口口口口
115
口口口口 |①---|
口口口口 |----|
口口口口 |----|
①口口①
116
口口口口 |①---|
口口口口 |----|
①口口① |----|
口口口口
117
口口口口 |①---|
①口口① |----|
口口口口 |----|
口口口口
118
①口口① |①---|
口②③口 |②---|
口口口口 |③---|
口口口口
119
口口口口 |----|
口口口口 |----|
口口口口 |----|
口口口口
120
口口口口 |①---|
口口口口 |----|
口①①口 |----|
口口口口
121
口口口口 |①---|
①口口① |----|
口口口口
口口口口
122
口口口口 |①---|
口口口口 |----|
口口口口 |----|
口①①口
123
①口口① |①---|
口口口口 |----|
口口口口
口口口口
124
口口口口 |①---|
口口口口 |----|
口口口口 |----|
①口口①
125
口口口口 |①---|
口口口口 |----|
口①①口 |----|
口口口口
126
口口口口 |①---|
①口口① |----|
口口口口 |----|
口口口口
127
口①①口 |①---|
口口口口 |----|
口口口口 |----|
口口口口
128
口口口口 |①---|
口口口口 |----|
口口口口 |----|
口①①口
129
①口口① |①---|
口口口口 |----|
口口口口 |----|
口口口口
130
口口口口 |①---|
口口口口 |----|
①口口① |----|
口口口口
131
口①①口 |①---|
口口口口 |----|
口口口口 |----|
口口口口
132
口口口口 |①---|
口口口口 |----|
口口口口 |----|
①口口①
133
①口口① |①---|
口口口口 |----|
口口口口 |----|
口口口口
134
口口口口 |①---|
①口口① |----|
口口口口 |----|
口口口口
135
口①①口 |①---|
口口口口 |----|
口口口口 |----|
口口口口
136
口口口口 |①---|
口口口口 |----|
口口口口 |----|
口①①口
137
口①①口 |①---|
口口口口 |----|
口口口口 |----|
口口口口
138
口口口口 |①---|
口口口口 |----|
口口口口 |----|
①口口①
139
①口口① |①---|
②口口② |--②-|
口口口口 |----|
口口口口
140
口口口口 |①---|
口口口口 |----|
口口口口 |----|
①口口①
141
①口口① |①---|
口口口口 |----|
口口口口 |----|
口口口口
142
口口口口 |①---|
口口口口 |----|
口口口口 |----|
①口口①
143
①口口① |①---|
②口口② |--②-|
口口口口 |----|
口口口口
144
口口口口 |①---|
口口口口 |----|
①口口① |----|
口口口口
145
口口口口 |----|
口口口口 |----|
口口口口 |----|
口口口口
146
口口口口 |----|
口口口口 |----|
口口口口 |----|
口口口口
147
口口口口 |----|
口口口口 |----|
口口口口 |----|
口口口口
148
口①①口 |①---|
口口口口 |----|
口口口口 |----|
口口口口

BPM: 246
149
口口口口 |①---|
口①①口 |----|
口口口口 |----|
口口口口

BPM: 216
150
口口口口 |①---|
口口口口 |----|
口①①口
口口口口

BPM: 166

口口口口
口口口口
口口口口 |----|
口口口口
151
口口口口 |①---|
口口口口 |----|
口口口口 |----|
①①①①


不確定度: 0

タグ:

+ タグ編集
  • タグ:

このサイトはreCAPTCHAによって保護されており、Googleの プライバシーポリシー利用規約 が適用されます。

最終更新:2013年03月29日 20:33