Beastie Starter
GUHROOVY

ADVANCED

Level: 9
BPM: 190
Notes: 656

1
口口口口 |----|
口口口口 |----|
口口口口 |----|
口口口口 |----|
2
口③口⑦ |①--②|
①口④② |--③④|
口⑤口口 |⑤--⑥|
口口口⑥ |--⑦-|
3
口⑤口⑦ |①--②|
口口④口 |--③④|
①③口② |⑤--⑥|
口口口⑥ |--⑦-|
4
口③口⑦ |①--②|
①口④② |--③④|
口⑤口口 |⑤--⑥|
口口口⑥ |--⑦-|
5
口⑤口⑦ |①--②|
口口④口 |--③④|
①③口② |⑤--⑥|
口口口⑥ |--⑦-|
6
口③口⑦ |①--②|
①口④② |--③④|
口⑤口口 |⑤--⑥|
口口口⑥ |--⑦-|
7
口⑤口⑦ |①--②|
口口④口 |--③④|
①③口② |⑤--⑥|
口口口⑥ |--⑦-|
8
口③口⑦ |①--②|
①口④② |--③④|
口⑤口口 |⑤--⑥|
口口口⑥ |--⑦-|
9
⑤口口⑤ |--①-|
口口口口 |②-③-|
②口④口 |④---|
①口③口 |⑤---|
10
口③口⑦ |①--②|
①口④② |--③④|
口⑤口口 |⑤--⑥|
口口口⑥ |--⑦-|
11
口⑤口⑦ |①--②|
口口④口 |--③④|
①③口② |⑤--⑥|
口口口⑥ |--⑦-|
12
口③口⑦ |①--②|
①口④② |--③④|
口⑤口口 |⑤--⑥|
口口口⑥ |--⑦-|
13
口⑤⑧⑦ |①--②|
口⑨④口 |--③④|
①③口② |⑤--⑥|
口口口⑥ |-⑦⑧⑨|
14
口③口⑦ |①--②|
①口④② |--③④|
口⑤口口 |⑤--⑥|
口口口⑥ |--⑦-|
15
口⑤口⑦ |①--②|
口口④口 |--③④|
①③口② |⑤--⑥|
口口口⑥ |--⑦-|
16
口③口⑦ |①--②|
①口④② |--③④|
口⑤口口 |⑤--⑥|
口口口⑥ |--⑦-|
17
⑦⑤⑤⑦ |①--②|
口口④口 |--③④|
①③口② |⑤--⑥|
⑥口口⑥ |--⑦-|
18
口③口⑦ |①--②|
①口④② |--③④|
口⑤口口 |⑤--⑥|
口口口⑥ |--⑦-|
19
口⑤口⑦ |①--②|
口口④口 |--③④|
①③口② |⑤--⑥|
口口口⑥ |--⑦-|
20
口③口⑦ |①--②|
①口④② |--③④|
口⑤口口 |⑤--⑥|
口口口⑥ |--⑦-|
21
口⑤口口 |①--②|
口口④口 |--③④|
①③⑦② |⑤--⑥|
⑨⑧口⑥ |⑦⑧⑨-|
22
口③口⑦ |①--②|
①口④② |--③④|
口⑤口口 |⑤--⑥|
口口口⑥ |--⑦-|
23
口⑤口⑦ |①--②|
口口④口 |--③④|
①③口② |⑤--⑥|
口口口⑥ |--⑦-|
24
口③③口 |①---|
①③③① |--②-|
②口口② |--③-|
口口口口 |----|
25
④④④④ |①---|
②口口② |②-③-|
口①①口 |--④-|
③口口③ |----|
26
⑥口口⑥ |①-②-|
口②④口 |③-④-|
①口口③ |⑤-⑥-|
口⑤⑤口 |----|
27
⑥口口⑥ |①-②-|
口②④口 |③-④-|
①口口③ |⑤-⑥-|
口⑤⑤口 |----|
28
⑥口口⑥ |①-②-|
口②④口 |③-④-|
①口口③ |⑤-⑥-|
口⑤⑤口 |----|
29
⑥口口⑥ |①-②-|
⑦②④⑦ |③-④-|
①⑦⑦③ |⑤-⑥-|
⑦⑤⑤⑦ |⑦---|
30
⑥口口⑥ |①-②-|
口②④口 |③-④-|
①口口③ |⑤-⑥-|
口⑤⑤口 |----|
31
⑥口口⑥ |①-②-|
口②④口 |③-④-|
①口口③ |⑤-⑥-|
口⑤⑤口 |----|
32
⑥口口⑥ |①-②-|
口②④口 |③-④-|
①⑦⑧③ |⑤-⑥-|
口⑤⑤口 |⑦-⑧-|
33
口①①口 |①---|
口口口口 |②---|
②口口②
口口口口

⑤⑤⑤⑤
③口口③
口口口口 |③-④-|
④口口④ |--⑤-|
34
口口口口 |①-②-|
⑥②③⑦ |③-④-|
⑧④①⑤ |⑤-⑥-|
口口口口 |⑦-⑧-|
35
口口③① |①-②-|
口⑧⑤口 |③-④-|
口⑥⑦口 |⑤-⑥-|
②④口口 |⑦-⑧-|
36
④②口口 |①-②-|
⑥口口⑦ |③-④-|
⑧口口⑤ |⑤-⑥-|
口口①③ |⑦-⑧-|
37
口口③① |①-②-|
⑦⑦⑤口 |③-④-|
口⑥⑦⑦ |⑤-⑥-|
②④口口 |⑦---|
38
口口③① |①-②-|
口⑧⑤口 |③-④-|
口⑥⑦口 |⑤-⑥-|
②④口口 |⑦-⑧-|
39
④②口口 |①-②-|
⑥口⑦⑦ |③-④-|
⑦⑦口⑤ |⑤-⑥-|
口口①③ |--⑦-|
40
⑤⑥③① |①-②-|
⑤⑥口口 |③-④-|
口口⑥⑤ |⑤---|
②④⑥⑤ |⑥---|
41
⑤口③③ |①-②-|
⑤⑥①① |③-④-|
②②⑥⑤ |⑤---|
④④口⑤ |⑥---|
42
口①②口 |①---|
口④③口 |②---|
口口口口 |③---|
口口口口 |④---|
43
①口口② |①---|
口口口口 |②---|
口口口口 |③---|
④口口③ |④---|
44
口口口口 |①---|
口①②口 |②---|
口④③口 |③---|
口口口口 |④---|
45
①口口② |①---|
口口口口 |②---|
口口口口 |③---|
④口口③ |④---|
46
口口口口 |①---|
口口口口 |②---|
口①②口 |③---|
口④③口 |④---|
47
①口口② |①---|
口口口口 |②---|
口口口口 |③---|
④口口③ |④---|
48
口①②口 |①---|
口④③口 |②---|
口口口口 |③---|
口口口口 |④---|
49
口口口口 |①---|
口口口口 |②---|
②②②②
①①①①

口③④口
③口口④
口口口口 |③--④|
⑤⑤⑤⑤ |--⑤-|
50
口口口口 |①---|
口①②口 |②---|
口④③口 |③---|
口口口口 |④---|
51
口口口口 |①---|
口①②口 |②---|
口④③口 |③---|
口口口口 |④---|
52
口口口口 |①---|
口①②口 |②---|
口④③口 |③---|
口口口口 |④---|
53
口口口口 |①---|
口①②口 |②---|
口④③口 |③---|
口口口口 |④---|
54
①口口② |①---|
口①②口 |②---|
口④③口 |③---|
④口口③ |④---|
55
①口口② |①---|
口①②口 |②---|
口④③口 |③---|
④口口③ |④---|
56
①口口② |①---|
口①②口 |②---|
口④③口 |③---|
④口口③ |④---|
57
①口口② |①---|
口①②口 |②---|
口④③口 |③---|
④口口③ |④---|
58
③口口③ |①---|
口②②口 |②---|
②口口② |③---|
口①①口 |----|
59
④口口④ |①---|
③口口③ |②-③-|
②口口② |④---|
口①①口 |----|
60
③口口③ |①---|
口②②口 |②---|
②口口② |③---|
口①①口 |----|
61
④口口④ |①---|
③口口③ |②-③-|
②口口② |④---|
口①①口 |----|
62
③口口③ |①---|
口②②口 |②---|
②口口② |③---|
口①①口 |----|
63
④口口④ |①---|
③口口③ |②-③-|
②口口② |④---|
口①①口 |----|
64
②口口② |①---|
②①①② |----|
②①①② |②---|
口①①口 |----|
65
④④④④ |①---|
口①①口 |②---|
口②②口 |③---|
③③③③ |④---|
66
口口口口 |①-②-|
②⑥⑤① |③-④-|
④⑧⑦③ |⑤-⑥-|
口口口口 |⑦-⑧-|
67
②⑥⑤① |①-②-|
口口口口 |③-④-|
口口口口 |⑤-⑥-|
④⑧⑦③ |⑦-⑧-|
68
口口口口 |①-②-|
②⑥⑤① |③-④-|
④⑧⑦③ |⑤-⑥-|
口口口口 |⑦-⑧-|
69
②⑥⑤① |①-②-|
口口口口 |③-④-|
口口口口 |⑤-⑥-|
④⑧⑦③ |⑦-⑧-|
70
口口口口 |①-②-|
②⑥⑤① |③-④-|
④⑧⑦③ |⑤-⑥-|
口口口口 |⑦-⑧-|
71
②⑥⑤① |①-②-|
口口口口 |③-④-|
口口口口 |⑤-⑥-|
④⑧⑦③ |⑦-⑧-|
72
口口口口 |①-②-|
②⑥⑤① |③-④-|
④⑧⑦③ |⑤-⑥-|
口口口口 |⑦-⑧-|
73
⑥口口⑥ |①-②-|
③口⑤口 |③-④-|
④口口④ |⑤-⑥-|
口②②① |----|
74
口口口口 |①-②-|
②⑥⑤① |③-④-|
④⑧⑦③ |⑤-⑥-|
口口口口 |⑦-⑧-|
75
②⑥⑤① |①-②-|
口口口口 |③-④-|
口口口口 |⑤-⑥-|
④⑧⑦③ |⑦-⑧-|
76
口口口口 |①-②-|
②⑥⑤① |③-④-|
④⑧⑦③ |⑤-⑥-|
口口口口 |⑦-⑧-|
77
②⑥⑤① |①-②-|
口口口口 |③-④-|
口口口口 |⑤-⑥-|
④⑧⑦③ |⑦-⑧-|
78
口口口口 |①-②-|
②⑥⑤① |③-④-|
④⑧⑦③ |⑤-⑥-|
口口口口 |⑦-⑧-|
79
②⑥⑤① |①-②-|
口口口口 |③-④-|
口口口口 |⑤-⑥-|
④⑧⑦③ |⑦-⑧-|
80
口口口口 |①-②-|
②⑥⑤① |③-④-|
④⑧⑦③ |⑤-⑥-|
口口口口 |⑦-⑧-|
81
口口口口 |①-②-|
③口口口 |③-④-|
④口口④
口②②①

口⑥⑥口
口口⑤口
口口口口 |⑤-⑥-|
⑦口口⑦ |--⑦-|
82
口口口口 |①-②-|
⑤②④⑥ |--③-|
口①③口 |④---|
口口口口 |⑤-⑥-|
83
口口口口 |①-②-|
⑤②④⑥ |--③-|
口①③口 |④---|
口口口口 |⑤-⑥-|
84
口口口口 |①-②-|
⑤②④⑥ |--③-|
口①③口 |④---|
口口口口 |⑤-⑥-|
85
口口口口 |①-②-|
⑤②④⑤ |--③-|
口①③口 |④---|
⑤口口⑤ |⑤---|
86
口①①口 |①---|
口口口口 |----|
口口口口 |----|
口口口口 |----|


不确定度: 0

最終更新:2012年11月27日 22:06