Baby Bleep March
seiya-murai

BASIC

Level: 5
BPM: 180
Notes: 297

1
口口口口 |----|
口口口口 |----|
口口口口 |----|
口口口口 |----|
2
口口口口 |①---|
口①①口 |----|
口①①口 |----|
口口口口 |----|
3
口口口口 |①---|
口①①口 |----|
口①①口 |----|
口口口口 |----|
4
口口口口 |①---|
口口口口 |----|
口②②口 |②---|
口①①口 |----|
5
①口口① |①---|
口①①口 |----|
口口口口 |----|
口口口口 |----|
6
口口口口 |----|
口口口口 |----|
口口口口 |----|
口口口口 |----|
7
口口口口 |①---|
①口口③ |②---|
④口口② |③---|
口口口口 |④---|
8
口口口口 |①---|
口口①口 |②---|
口口②口 |③---|
口④③口 |④---|
9
①口口③ |①---|
④口口② |②---|
口口口口 |③---|
口口口口 |④---|
10
口口口口 |①---|
口①口口 |②---|
口②口口 |③---|
口③④口 |④---|
11
口口口口 |①---|
口口口口 |②---|
④口口③ |③---|
②口口① |④---|
12
④口口③ |①---|
②口口① |②---|
口口口口 |③---|
口口口口 |④---|
13
口④①口 |①---|
口②口口 |②---|
③口口口 |③---|
口口口口 |④---|
14
口口口口 |①---|
口口①口 |②---|
口④④② |③---|
口③③口 |④---|
15
口口口口 |①---|
口口口口 |②---|
①口口③ |③---|
④口口② |④---|
16
口口口② |①---|
口口③① |②---|
口④口口 |③---|
口口口口 |④---|
17
口口口口 |①---|
①口口③ |②---|
④口口② |③---|
口口口口 |④---|
18
①口口口 |①---|
口②口口 |②---|
口口③口 |③---|
口口口④ |④---|
19
口口口口 |①---|
口口口口 |②---|
③口口④ |③---|
口①②口 |④---|
20
口③④口 |①---|
③①②④ |②---|
口口口口 |③---|
口口口口 |④---|
21
①③口口 |①---|
口②④口 |②---|
口口口口 |③---|
口口口口 |④---|
22
口口口口 |①---|
口口口口 |②---|
③②口① |③---|
③口口口 |----|
23
口口口④ |①---|
口口口③ |②---|
口口口② |③---|
口口口① |④---|
24
①口口口 |①---|
②②口口 |②---|
口口口口 |----|
③口口口 |③---|
25
③口口④ |①---|
②口口口 |②---|
①口口口 |③---|
口口口口 |④---|
26
口口口口 |①---|
口口①① |----|
口口口口 |----|
口②口口 |②---|
27
口口口口 |①---|
口④口口 |②---|
口②③口 |③---|
口口①口 |④---|
28
③口②口 |①---|
口口①② |②---|
口口口口 |----|
口口口口 |③---|
29
口口口口 |①---|
口①口口 |②---|
②口口口 |③---|
口③④口 |④---|
30
口口口口 |①---|
口口口口 |----|
口口口口 |----|
口口口① |----|
31
口口口口 |①---|
口①①口 |----|
口口口口 |----|
口口口口 |----|
32
口口口口 |①---|
口口口口 |----|
口①①口 |----|
口口口口 |----|
33
口口口口 |①---|
口口口口 |②---|
③口口④ |③---|
①口口② |④---|
34
③口④口 |①---|
口①②④ |②---|
口口口口 |③---|
口口口口 |④---|
35
口口口口 |----|
口口口口 |①---|
口①口③ |②---|
口口②口 |③---|
36
口口口① |①---|
口口②口 |②---|
④③口口 |③---|
口④口口 |④---|
37
口口口口 |----|
③口口口 |①---|
口口①口 |②---|
口口②口 |③---|
38
①口口口 |①---|
口②口口 |②---|
口口③④ |③---|
口口④口 |④---|
39
口口口口 |----|
口口口口 |①---|
①②③口 |②---|
口口口口 |③---|
40
口口③③ |①---|
④④①② |②---|
口口口口 |③---|
口口口口 |④---|
41
①①口口 |①---|
口口②② |--②-|
口口③③ |----|
口口口口 |③---|
42
口口口口 |①---|
口口口口 |----|
口口口口 |----|
口口①① |----|
43
口口口口 |①---|
口④口口 |②---|
②③口口 |③---|
①口口口 |④---|
44
口口②③ |①---|
口口①④ |②---|
口口口口 |③---|
口口口口 |④---|
45
口口口口 |①---|
口口④口 |②---|
口口③② |③---|
口口口① |④---|
46
③②口口 |①---|
④①口口 |②---|
口口口口 |③---|
口口口口 |④---|
47
口口口口 |①---|
口④③口 |②---|
口②①口 |③---|
口口口口 |④---|
48
口口口① |①---|
口口口口 |②---|
口③口口 |----|
②②口口 |③---|
49
④口口口 |①---|
口②③口 |②---|
口口①口 |③---|
口口口口 |④---|
50
口口口口 |①---|
口口口口 |----|
口口口口 |----|
口口①① |----|
51
口口口口 |①---|
③口口④ |②---|
口口口口 |③---|
口①②口 |④---|
52
口②②口 |①---|
口③口口 |②---|
口①①口 |----|
口口口口 |③---|
53
口口口口 |①---|
口口①口 |②---|
口②③口 |③---|
口④口口 |④---|
54
②①①② |①---|
①②②① |--②---|
口口口口 |----|
口口口口 |----|
55
口口口口 |----|
口口③口 |①---|
口②①口 |②---|
口口口口 |③---|
56
口口口① |①---|
口口口② |②---|
口口口③ |③---|
口口④④ |④---|
57
口口口口 |----|
口③口口 |①---|
口①②口 |②---|
口口口口 |③---|
58
①口口口 |①---|
②口口口 |②---|
③口口口 |③---|
④④口口 |④---|
59
口口口口 |----|
口口③口 |①---|
口口口② |②---|
口口口① |③---|
60
口③①口 |①---|
③②口口 |②---|
口口口口 |③---|
口口口口 |----|
61
口口①口 |①---|
口口②① |②---|
口③口口 |③---|
④口口口 |④---|
62
口口口口 |①---|
口口口口 |----|
①口口口 |----|
口口口口 |----|
63
口口口口 |----|
口口口口 |①---|
口口③① |②---|
口口口② |③---|
64
口口口口 |①---|
②①口口 |②---|
③口口口 |③---|
口④口口 |④---|
65
口口口口 |----|
口口③口 |①---|
口②口口 |②---|
①口口口 |③---|
66
口口口口 |①---|
口口口① |②---|
口口④② |③---|
口口口③ |④---|
67
口口口口 |----|
口口口口 |①---|
口③口口 |②---|
①口②口 |③---|
68
口④口口 |①---|
②口③口 |②---|
口口口① |③---|
口口口口 |④---|
69
口口①口 |①---|
口口口① |②---|
④口②口 |③---|
口③口口 |④---|
70
口①口口 |①---|
①口②口 |②---|
口口口③ |③---|
口口④口 |④---|
71
口口口口 |①---|
①口口① |②---|
②①①口 |③---|
③口口④ |④---|
72
口口口口 |①---|
口口口口 |----|
口口口口 |----|
口①口口 |----|
73
口口口口 |①---|
口口口口 |②---|
③口口④ |③---|
①口口② |④---|
74
③口口④ |①---|
①口口② |②---|
口口口口 |③---|
口口口口 |④---|
75
口口口口 |①---|
口口口口 |②---|
口③④口 |③---|
口①②口 |④---|
76
口口口口 |①---|
口①①口 |----|
口口口口 |②---|
口②②口 |----|
77
口口①口 |①---|
口①口① |----|
口口①口 |----|
口口口口 |----|


不确定度: 0

最終更新:2012年11月27日 22:05