Baby Bleep March
seiya-murai

ADVANCED

Level: 8
BPM: 180
Notes: 559

1
口口口口 |----|
口口口口 |----|
口口口口 |----|
口口口口 |----|
2
③口口③ |①---|
口①①口 |②---|
口①①口 |③---|
口②②口 |----|
3
口③③口 |①---|
①口口① |②---|
①口口① |③---|
②口口② |----|
4
口口口口 |①---|
③口口③ |②---|
②口口② |③---|
④①①④ |④---|
5
①口口① |①---|
口①①口 |----|
口①①口 |----|
口口口口 |----|
6
口口口口 |----|
口口④口 |----|
口③口口 |①-②-|
①口口② |③-④-|
7
口①③⑤ |①---|
口口口口 |②---|
口口②② |③---|
④④口口 |④-⑤-|
8
①口口口 |①-②-|
③口口② |③-④-|
⑤口口④ |⑤-⑥-|
⑦口⑧⑥ |⑦-⑧-|
9
①口⑤③ |①---|
④④②② |②---|
口口口口 |③---|
口口口口 |④-⑤-|
10
①②口口 |①-②-|
口口③④ |③-④-|
⑤⑥口口 |⑤-⑥-|
口口⑦⑧ |⑦-⑧-|
11
口口⑧④ |①-②-|
③⑦口口 |③-④-|
口口⑥② |⑤-⑥-|
①⑤口口 |⑦-⑧-|
12
口口口口 |①-②-|
⑤口④③ |③-④-|
①②口口 |⑤---|
口口⑥⑥ |⑥---|
13
①口口口 |①--②|
⑤②口口 |③-④-|
口⑥③④ |⑤-⑥-|
口口⑦⑧ |⑦-⑧-|
14
②④④② |①-②-|
④②②④ |----|
口③③口 |③-④-|
①口口口 |----|
15
①口口③ |①---|
口口口⑤ |②---|
口口口口 |③---|
④④②② |④-⑤-|
16
口口口口 |①-②-|
③②①口 |③-④-|
⑦⑥⑤④ |⑤-⑥-|
⑧口口口 |⑦-⑧-|
17
①口⑤③ |①---|
口口口口 |②---|
口口口口 |③---|
④④②② |④-⑤-|
18
口口口口 |①-②-|
①②③④ |③-④-|
⑤⑥口口 |⑤-⑥-|
口口⑦⑧ |⑦-⑧-|
19
口口⑧④ |①-②-|
③⑦口口 |③-④-|
口口⑥② |⑤-⑥-|
①⑤口口 |⑦-⑧-|
20
口口口④ |①-②-|
⑤口③⑥ |③-④-|
①②⑥口 |⑤---|
口口口口 |⑥---|
21
①②④③ |①--②|
口⑤口口 |③-④-|
口⑥口口 |⑤-⑥-|
口⑦⑧口 |⑦-⑧-|
22
口④口口 |①-②-|
④口④③ |③---|
②④口口 |④---|
⑤口⑥① |⑤--⑥|
23
口口口④ |①---|
口口口③ |②---|
口口②口 |③---|
口①口口 |④---|
24
①①口口 |①-②-|
②②⑥⑤ |③---|
③③口⑦ |④-⑤-|
口口口④ |⑥-⑦-|
25
⑥口⑦口 |①-②-|
口⑧口⑤ |③-④-|
③④口口 |⑤-⑥-|
①②口口 |⑦-⑧-|
26
口口口口 |①---|
口口口口 |②---|
口⑤①③ |③---|
④口口② |④--⑤|
27
口口口口 |①---|
④口口② |②---|
③口①口 |③---|
口口口口 |④---|
28
②口口③ |①-②-|
⑤②③口 |③---|
⑥口口① |④-⑤-|
⑦口①④ |⑥-⑦-|
29
口③口口 |①---|
⑤口④① |②---|
口⑥口口 |③-④-|
口②口口 |⑤-⑥-|
30
口口②口 |①-②-|
口⑥⑥③ |③-④-|
口口④口 |⑤---|
口⑤①口 |⑥---|
31
①口口① |①---|
口口口口 |----|
①②②① |----|
口口口口 |②---|
32
口口口口 |①---|
①②②① |----|
口口口口 |----|
①口口① |②---|
33
⑦口口⑧ |①-②-|
⑤口口⑥ |③-④-|
③口口④ |⑤-⑥-|
①口口② |⑦-⑧-|
34
口⑦口口 |①-②-|
⑦⑤⑥口 |③-④-|
口③④口 |⑤-⑥-|
口①②口 |⑦---|
35
口口①口 |--①-|
口口口① |--②-|
口②口④ |③---|
口口口③ |④---|
36
口①③口 |①---|
①④②③ |②---|
口②④口 |③---|
口口口口 |④---|
37
口①口口 |--①-|
①口口口 |--②-|
④口口② |③---|
③口口口 |④---|
38
①口口⑦ |①--②|
⑥口⑦⑤ |③-④-|
口⑥⑤口 |⑤-⑥-|
口③④② |⑦---|
39
口①口口 |--①-|
口口口口 |--②-|
口口④④ |③---|
②口口③ |④---|
40
③③③③ |①---|
②②②口 |②---|
①①口口 |③---|
④⑤口口 |④-⑤-|
41
⑥口口口 |①--②|
④口口① |③-④-|
⑤③②口 |⑤---|
口口口口 |⑥---|
42
口口口口 |①---|
口口口口 |----|
口口口① |----|
口口①① |----|
43
⑦口口⑧ |①-②-|
⑤口口⑥ |③-④-|
③口口④ |⑤-⑥-|
①口口② |⑦-⑧-|
44
口⑥⑥口 |①-②-|
⑤③②④ |③---|
口⑤④口 |④-⑤-|
③①口② |--⑥-|
45
⑧口口⑦ |①-②-|
⑥口口⑤ |③-④-|
④口口③ |⑤-⑥-|
②口口① |⑦-⑧-|
46
口⑥⑥口 |①-②-|
④②③⑤ |③---|
口④⑤口 |④-⑤-|
②口①③ |--⑥-|
47
①口口③ |①---|
口口口口 |②---|
④口口② |③---|
口口口口 |④---|
48
口①①口 |①-②-|
④②②口 |③---|
口③③⑤ |--④-|
⑥口口口 |⑤-⑥-|
49
④⑥⑤口 |①-②-|
口口⑧③ |③-④-|
②口口⑦ |⑤-⑥-|
口口口① |⑦-⑧-|
50
口口口口 |①---|
口②②口 |----|
口①口口 |----|
口口口口 |②---|
51
②口口④ |①---|
①口口③ |②---|
口口口口 |③---|
口口口口 |④---|
52
④③③⑤ |①-②-|
⑥口口口 |③---|
②口口② |--④-|
①口口① |⑤-⑥-|
53
口口口口 |①---|
口②②① |②---|
⑤口口⑥ |③-④-|
③口口④ |⑤-⑥-|
54
④⑥⑤③ |①-②-③-|
④⑥⑤③ |--④-⑤-|
⑦②①⑦ |⑥---|
⑦②①⑦ |⑦---|
55
口口口① |--①-|
④口口口 |--②-|
口③口口 |③---|
口②②口 |④---|
56
①①口口 |①---|
口②②口 |②---|
口口③③ |③---|
口口口④ |④---|
57
口口口① |--①-|
口口④口 |--②-|
口口③口 |③---|
口②②口 |④---|
58
口口口口 |①--②|
⑦⑦口① |③-④-|
⑥⑥口④ |⑤-⑥-|
⑤⑤③② |⑦---|
59
①口口口 |--①-|
口口口口 |--②-|
口口口口 |③---|
②③口④ |④---|
60
③③③口 |①---|
⑤②②口 |②---|
④②①① |③---|
口口①口 |④-⑤-|
61
口口口① |①--②|
口④③② |③-④-|
⑥⑥口口 |⑤---|
⑤口口口 |⑥---|
62
口口口① |①---|
口口口口 |----|
口口①口 |----|
口口口口 |----|
63
口①口口 |--①-|
①口口④ |--②-|
口口口口 |③---|
④③②口 |④---|
64
①①①口 |①---|
口②②口 |②---|
口②③③ |③---|
口口③④ |④---|
65
①口口④ |--①-|
口①③口 |--②-|
口口口③ |③---|
口②口口 |④---|
66
⑦口口口 |①--②|
①⑦口④ |③-④-|
⑤③②⑥ |⑤-⑥-|
口⑤⑥口 |⑦---|
67
口口口① |--①-|
口口口口 |--②-|
口口④④ |③---|
②②口③ |④---|
68
口口③③ |①---|
口口口② |②---|
①①口口 |③---|
口④口口 |④---|
69
口①口口 |①---|
①口①口 |----|
口①口口 |----|
口口②口 |②---|
70
口①口① |①---|
口口①口 |----|
口①口① |----|
口②②口 |②---|
71
①③③① |①---|
口①①② |----|
①口口① |②---|
口口口口 |③---|
72
⑧口口口 |①-②-|
⑥口口⑦ |③-④-|
④口口⑤ |⑤-⑥-|
②口①③ |⑦-⑧-|
73
口⑥口① |①-②-|
⑥④⑤口 |③---|
④②③⑤ |④-⑤-|
②口口③ |--⑥-|
74
口口口口 |①-②-|
⑦口口⑧ |③-④-|
口⑤⑥口 |⑤-⑥-|
①③④② |⑦-⑧-|
75
①口口口 |①-②-|
口③②口 |③---|
口口口口
③口口②

⑥⑤④⑥
口口口口
⑤口口④ |④-⑤-|
口口口口 |--⑥-|
76
口口口口 |①---|
口②②口 |----|
⑥②②⑤ |②---|
④①①③ |③④⑤⑥|
77
口口①口 |①---|
口口口① |----|
口口口口 |----|
口口口口 |----|


不确定度: 0

最終更新:2012年11月27日 22:04