Amalgamation
Mystic Moon

BASIC

Level: 4
BPM: 166
Notes: 271

1
口口口口 |----|
口口口口 |----|
口口口口 |----|
口口口口 |----|
2
口口口口 |①---|
口口口口 |②---|
①③口口 |③---|
②④口口 |④---|
3
口口口口 |①---|
口口口口 |②---|
口口①③ |③---|
口口②④ |④---|
4
口口口口 |①---|
口口口口 |②---|
①③口口 |③---|
②④口口 |④---|
5
口口口口 |①---|
口口口口 |②---|
口口①③ |③---|
口口②④ |④---|
6
口口口口 |①---|
口①①口 |----|
口口口口 |----|
口口口口 |----|
7
口口口口 |----|
口口口口 |----|
口②②口 |①---|
口①①口 |②---|
8
口口口口 |①---|
口①①口 |----|
口口口口 |----|
口口口口 |----|
9
口口口口 |----|
口口口口 |----|
口②②口 |①---|
口①①口 |②---|
10
口口口口 |①---|
⑤①①④ |②--③|
③口口② |--④-|
口口口⑥ |⑤-⑥-|
11
口口口口 |①---|
口口口口 |----|
口口口口 |----|
①口口口 |----|
12
口口口口 |①---|
②口口③ |②---|
口口口口 |③---|
口①④口 |④---|
13
口口口口 |①---|
口②④口 |②---|
口口口口 |③---|
①口口③ |④---|
14
口①③口 |①---|
口口口口 |②---|
口④②口 |③---|
口口口口 |④---|
15
口口口口 |①---|
口①①口 |----|
口口口口 |----|
口口口口 |----|
16
口口口口 |①---|
口②④口 |②---|
①口口③ |③---|
口口口口 |④---|
17
口口口口 |①---|
②口口④ |②---|
口①③口 |③---|
口口口口 |④---|
18
①口口③ |①---|
口②④口 |②---|
口口口口 |③---|
口口口口 |④---|
19
口①①口 |①---|
②口口② |②---|
③口口③ |③---|
④口口④ |④---|
20
口口口口 |①---|
②口口③ |②---|
口口口口 |③---|
口①④口 |④---|
21
口口口口 |①---|
口②④口 |②---|
口口口口 |③---|
①口口③ |④---|
22
口①③口 |①---|
口口口口 |②---|
口④②口 |③---|
口口口口 |④---|
23
口口口口 |①---|
口①①口 |----|
口口口口 |----|
口口口口 |----|
24
口口口口 |①---|
口②④口 |②---|
①口口③ |③---|
口口口口 |④---|
25
口口口口 |①---|
②口口④ |②---|
口①③口 |③---|
口口口口 |④---|
26
①口口③ |①---|
口②④口 |②---|
口口口口 |③---|
口口口口 |④---|
27
口①①口 |①---|
②口口② |②---|
③口口③ |③---|
口④④口 |④---|
28
口口口口 |①---|
②口口② |----|
口①①口 |②---|
口口口口 |----|
29
②口口② |①---|
口①①口 |----|
口口口口 |②---|
口口口口 |----|
30
口①①口 |①---|
口口口口 |----|
②口口③ |②---|
口口口口 |③---|
31
口口口口 |①---|
口①①口 |----|
口口口口 |②---|
②口口③ |③---|
32
口口口口 |①---|
口①①口 |----|
②口口② |②---|
口口口口 |----|
33
口口口口 |①---|
口口口口 |----|
口①①口 |②---|
②口口② |----|
34
口口口口 |①---|
②口口③ |----|
口口口口 |②---|
口①①口 |③---|
35
②口口③ |①---|
口口口口 |----|
口①①口 |②---|
口口口口 |③---|
36
口口口口 |①---|
②①①口 |----|
③口口口 |②--③|
④口口口 |--④-|
37
口口口口 |①---|
口①①② |----|
口口口③ |②--③|
口口口④ |--④-|
38
口口口口 |①---|
④①①口 |----|
③口口口 |②--③|
②口口口 |--④-|
39
口口口口 |--①-|
口口口③ |--②-|
口口口② |--③-|
口口①口 |----|
40
口口口口 |①---|
②①①口 |----|
③口口口 |②--③|
④口口口 |--④-|
41
口口口口 |①---|
口①①② |----|
口口口③ |②--③|
口口口④ |--④-|
42
口口口口 |①---|
④①①口 |----|
③口口口 |②--③|
②口口口 |--④-|
43
口①①口 |①---|
口②②口 |----|
口口口口 |----|
口口口口 |②---|
44
口口口口 |----|
口口口口 |----|
口①①口 |①---|
口口口口 |----|
45
①口口① |①---|
②口口② |----|
口口口口 |②---|
口口口口 |----|
46
口口口口 |①---|
口②②口 |----|
①口口① |②---|
口口口口 |----|
47
口口口口 |----|
口口口口 |----|
口口口口 |----|
口口口口 |----|
48
口口口口 |①---|
②口口③ |②---|
口口口口 |③---|
口①④口 |④---|
49
口口口口 |①---|
口②④口 |②---|
口口口口 |③---|
①口口③ |④---|
50
口①③口 |①---|
口口口口 |②---|
口④②口 |③---|
口口口口 |④---|
51
口口口口 |①---|
口①①口 |----|
口口口口 |----|
口口口口 |----|
52
①口口③ |①---|
②口口④ |②---|
口口口口 |③---|
口口口口 |④---|
53
口口口口 |①---|
①口口③ |②---|
②口口④ |③---|
口口口口 |④---|
54
口口口口 |①---|
口口口口 |②---|
①口口③ |③---|
②口口④ |④---|
55
口口④口 |①---|
口③口口 |②---|
口口②口 |③---|
口①口口 |④---|
56
口①口口 |①---|
③口口口 |②---|
口②口口 |③---|
④口口口 |④---|
57
口口④口 |①---|
口口口② |②---|
口口③口 |③---|
口口口① |④---|
58
①口口③ |①---|
口口口口 |②---|
口②④口 |③---|
口口口口 |④---|
59
口①口口 |①---|
口口②口 |②---|
口③口口 |③---|
口口④口 |④---|
60
口口③口 |①---|
④口口口 |②---|
口口口② |③---|
口①口口 |④---|
61
口③口口 |①---|
口口口④ |②---|
②口口口 |③---|
口口①口 |④---|
62
①口口口 |①---|
口口口③ |②---|
口②口口 |③---|
口口④口 |④---|
63
口口④口 |①---|
③口口口 |②---|
口口口② |③---|
口①口口 |④---|
64
①口口① |①---|
口口口口 |----|
口口口口 |----|
口口口口 |----|
65
口口口口 |----|
口口口口 |----|
口②②口 |①---|
口①①口 |②---|
66
口口口口 |①---|
①口口① |----|
口口口口 |----|
口口口口 |----|
67
口口口口 |----|
口口口口 |----|
口②②口 |①---|
①口口① |②---|
68
口口口口 |①---|
⑤①①④ |②--③|
③口口② |--④-|
口口口⑥ |⑤-⑥-|
69
口口口口 |①---|
口②②口 |----|
口③③口 |②---|
①口口口 |③---|
70
口口口口 |①---|
口口口口 |----|
口口口口 |----|
口①①口 |----|


不确定度: 0

最終更新:2012年11月27日 22:02