Amalgamation
Mystic Moon

ADVANCED

Level: 8
BPM: 166
Notes: 521

1
口口口口 |----|
口口口口 |----|
口口口口 |----|
口口口口 |----|
2
口④口③ |①---|
口口⑤口 |②---|
口口口口 |③---|
①②口① |④-⑤-|
3
①⑤②口 |①---|
口口口口 |②---|
口口口口 |③---|
③口④口 |④-⑤-|
4
①口②① |①---|
口口口口 |②---|
口⑤口口 |③---|
③口④口 |④-⑤-|
5
口④口③ |①---|
口口⑤口 |②---|
口口口口 |③---|
口②口① |④-⑤-|
6
①③②④ |①---|
口口口口 |②---|
口口⑤口 |③---|
④②③① |④-⑤-|
7
口口口口 |①---|
④口口④ |②---|
③口口③ |③---|
口②口① |④---|
8
①①①① |①---|
口口口口 |②---|
口口⑤口 |③---|
②口③④ |④-⑤-|
9
口口口口 |①---|
口口口口 |②---|
④②口④ |③---|
③①口③ |④---|
10
①①①① |①---|
③⑤⑤② |②--③|
④⑥⑥④ |--④-|
②口口③ |⑤-⑥-|
11
口口口口 |①---|
口口口口 |----|
口口口口 |----|
口①①口 |----|
12
口口⑥⑥ |①-②-|
口②口④ |③-④-|
①口③口 |⑤---|
⑤⑤口口 |⑥---|
13
②②口口 |①---|
⑥口④口 |②---|
口⑤口③ |③-④-|
口口①① |⑤-⑥-|
14
口口口口 |①②③-|
口③口口 |④-⑤-|
⑤口②④
口①口口

口口口口
口口口口
口口口口 |⑥---|
⑦⑦⑥⑥ |⑦---|
15
口口①① |①---|
②②口口 |②---|
口口③③ |③---|
口④口口 |④---|
16
口⑧口⑦ |①-②-|
⑤口⑥⑤ |③-④-|
口④口③ |⑤-⑥-|
①口②① |⑦-⑧-|
17
⑦口⑧口 |①-②-|
⑤⑥口⑤ |③-④-|
③口④口 |⑤-⑥-|
①②口① |⑦-⑧-|
18
⑤⑥口⑤ |①-②-|
⑦口⑧口 |③-④-|
①②口① |⑤-⑥-|
③口④口 |⑦-⑧-|
19
⑤⑥口口 |①-②-|
⑦口⑧口 |③-④-|
①②口口 |⑤-⑥-|
③口④口 |⑦-⑧-|
20
口口⑥⑥ |①-②-|
口②口④ |③-④-|
①口③口 |⑤---|
⑤⑤口口 |⑥---|
21
②②口口 |①---|
⑥口④口 |②---|
口⑤口③ |③-④-|
口口①① |⑤-⑥-|
22
口口口口 |①②③-|
口③口口 |④-⑤-|
⑤口②④
口①口口

口口口口
口口口口
口口口口 |⑥---|
⑦⑦⑥⑥ |⑦---|
23
口口①① |①---|
②②口口 |②---|
口口③③ |③---|
口④口口 |④---|
24
口⑧口⑦ |①-②-|
⑤口⑥⑤ |③-④-|
口④口③ |⑤-⑥-|
①口②① |⑦-⑧-|
25
⑦口⑧口 |①-②-|
⑤⑥口⑤ |③-④-|
③口④口 |⑤-⑥-|
①②口① |⑦-⑧-|
26
口口口① |①-②-|
③⑥②口 |③-④-|
口④⑦⑤ |⑤-⑥⑦|
口⑧口⑨ |⑧-⑨-|
27
口⑥口⑤ |①---|
口口④口 |②---|
②②③③ |③-④-|
①口口口 |⑤-⑥-|
28
①口①口 |①---|
②口②口 |----|
口口口口 |②---|
口口口口 |----|
29
口口口口 |①---|
口②口② |----|
①口①口 |②---|
口口口口 |----|
30
③⑤⑥④ |①-②-|
①口②口 |③---|
口口口口 |④--⑤|
口口口口 |--⑥-|
31
口口口口 |①-②-|
①③②口 |③---|
口口口口
口口口口

口口口口
口口⑦④
口口⑤⑥ |④-⑤-|
口口口口 |⑥-⑦-|
32
口①口① |①---|
口②口② |----|
口口口口 |②---|
口口口口 |----|
33
口口口口 |①---|
②口②口 |----|
口①口① |②---|
口口口口 |----|
34
④⑥⑤③ |①-②-|
口②口① |③---|
口口口口 |④--⑤|
口口口口 |--⑥-|
35
口口口口 |①-②-|
口②③① |③---|
口口口口
口口口口

口口口口
④⑦口口
⑥⑤口口 |④-⑤-|
口口口口 |⑥-⑦-|
36
①口①口 |①---|
口口口② |----|
口口③③ |②--③|
口④④④ |--④-|
37
口①口① |①---|
②口口口 |----|
③③口口 |②--③|
④④④口 |--④-|
38
①口①口 |①---|
口④④④ |----|
口口③③ |②--③|
口口口② |--④-|
39
口④口④ |--①-|
③③③口 |--②-|
②②口口 |--③-|
①口口口 |--④-|
40
①口①口 |①---|
口口口② |----|
口口③③ |②--③|
口④④④ |--④-|
41
口①口① |①---|
②口口口 |----|
③③口口 |②--③|
④④④口 |--④-|
42
①口①口 |①---|
口④④④ |----|
口口③③ |②--③|
口口口② |--④-|
43
①口口① |①---|
③③③③ |----|
②②②② |②---|
口口口口 |③---|
44
②②②② |----|
口口口口 |①---|
口口口口 |②---|
①①①① |----|
45
口口口口 |①---②-|
①②口① |--③---|
口③口口
口口口口

口⑤口口
⑥口口口
口口口口 |④---⑤-|
口④口口 |--⑥---|
46
口口口口 |①---②-|
口口①口 |--③---|
口口②口 |④---|
④口③④ |----|
47
口口口口 |----|
口口口口 |----|
口口口口 |----|
口口口口 |----|
48
口口⑥⑥ |①-②-|
口②口④ |③-④-|
①口③口 |⑤---|
⑤⑤口口 |⑥---|
49
②②口口 |①---|
⑥口④口 |②---|
口⑤口③ |③-④-|
口口①① |⑤-⑥-|
50
口口口口 |①②③-|
口③口口 |④-⑤-|
⑤口②④
口①口口

口口口口
口口口口
口口口口 |⑥---|
⑦⑦⑥⑥ |⑦---|
51
口口①① |①---|
②②口口 |②---|
口口③③ |③---|
口④口口 |④---|
52
口⑧口⑦ |①-②-|
口口⑥⑤ |③-④-|
口④口③ |⑤-⑥-|
口口②① |⑦-⑧-|
53
⑦口⑧口 |①-②-|
⑤⑥口口 |③-④-|
③口④口 |⑤-⑥-|
①②口口 |⑦-⑧-|
54
⑤⑥口口 |①-②-|
⑦口⑧口 |③-④-|
①②口口 |⑤-⑥-|
③口④口 |⑦-⑧-|
55
③④口③ |①---|
⑤口⑥口 |②---|
②口口② |③-④-|
①口口① |⑤-⑥-|
56
口口⑧⑦ |①-②-|
口②口④ |③-④-|
①口③口 |⑤-⑥-|
⑤⑥口口 |⑦-⑧-|
57
③④口口 |①-②-|
⑧口⑥口 |③-④-|
口⑦口⑤ |⑤-⑥-|
口口②① |⑦-⑧-|
58
口口口口 |①②③-|
⑨③⑧⑩ |④-⑤-|
⑤⑦②④ |⑥⑦⑧-|
口①⑥口 |⑨-⑩-|
59
②口口② |①---|
口口口口 |②---|
③口④③ |③---|
①⑤口① |④-⑤-|
60
口⑧口⑦ |①-②-|
口口⑥⑤ |③-④-|
口④口③ |⑤-⑥-|
口口②① |⑦-⑧-|
61
⑦口⑧口 |①-②-|
⑤⑥口口 |③-④-|
③口④口 |⑤-⑥-|
①②口口 |⑦-⑧-|
62
⑤⑥口口 |①-②-|
⑦口⑧口 |③-④-|
①②口口 |⑤-⑥-|
③口④口 |⑦-⑧-|
63
口⑥口⑤ |①---|
口口④口 |②---|
②②③③ |③-④-|
①口口① |⑤-⑥-|
64
①口①口 |①---|
②③口③ |②---|
口口口④ |③---|
口口口口 |④---|
65
口③口③ |①---|
口④口④ |②---|
①⑤①⑤ |③-④-|
②⑥口⑥ |⑤-⑥-|
66
口口口口 |①---|
口口口④ |②---|
②③口③ |③---|
①口①口 |④---|
67
②③口③ |①---|
①④①④ |②---|
口⑤口⑤ |③-④-|
口⑥口⑥ |⑤-⑥-|
68
④口①口 |①---|
②⑤⑤③ |②--③|
①⑥⑥④ |--④-|
③口②口 |⑤-⑥-|
69
③口口② |①---|
⑥④口口 |②-③-|
⑤⑦口口 |④-⑤-|
口①①口 |⑥-⑦-|
70
口口口口 |①---|
口口口口 |----|
口口口口 |----|
①口口口 |----|


不确定度: 0

最終更新:2012年11月27日 22:02