ちっぽけな勇気
FUNKY MONKEY BABYS

BASIC

Level: 1
BPM: 111
Notes: 109

1
口口口口 |----|
口口口口 |----|
口口口口 |----|
口口口口 |----|
2
口口口口 |①---|
口口①口 |----|
口口口口 |----|
口口口口 |----|
3
口口口口 |①---|
口口口口 |----|
口①口口 |----|
口口口口 |----|
4
口口口口 |①---|
口①口口 |----|
口口口口 |----|
口口口口 |----|
5
口口口口 |①---|
口口口口 |----|
口口①口 |----|
口口口口 |----|
6
口口口口 |①---|
口①口口 |----|
口②口口 |②---|
口口口口 |----|
7
口口口口 |①---|
口口口口 |----|
口口口口 |----|
口①口口 |----|
8
口①①口 |①---|
口口口口 |----|
口口口口 |----|
口口口口 |----|
9
口口口口 |①---|
口口①口 |----|
口口②口 |②---|
口口口口 |----|
10
口口口口 |①---|
口②口口 |----|
口③口口 |--②-|
口口①口 |③---|
11
口口口口 |----|
口口①口 |----|
口口②口 |--①-|
口口口口 |②---|
12
口口口口 |----|
口口口口 |----|
口口口口 |①---|
口①①口 |----|
13
口口口口 |①---|
口口口口 |----|
口①①口 |----|
口口口口 |----|
14
口口口口 |①---|
口①口口 |----|
口口口口 |----|
口口口口 |----|
15
口口口口 |①---|
口口①口 |----|
口口口口 |----|
口口口口 |----|
16
口口口口 |①---|
口口口口 |----|
口口①口 |----|
口口口口 |----|
17
口口口口 |①---|
口口口口 |----|
口①口口 |----|
口口口口 |----|
18
口口口口 |①---|
①②口口 |----|
口口口口 |②---|
口口口口 |----|
19
口口口口 |①---|
口口①② |----|
口口口口 |②---|
口口口口 |----|
20
口口口口 |①---|
口口口口 |----|
口①②口 |②---|
口口口口 |----|
21
口口口口 |①---|
口口口口 |②---|
口口口口 |③---|
①②③口 |----|
22
口③③口 |①---|
②口口① |----|
口口口口 |②---|
口口口口 |③---|
23
口口口口 |①---|
口①①口 |②---|
口②②口 |③---|
口③③口 |----|
24
口③③口 |①---|
口口口口 |----|
②口口① |②---|
口口口口 |③---|
25
口口口口 |①---|
口①①口 |②---|
口②②口 |③---|
口③③口 |----|
26
口口口口 |①---|
口口口口 |----|
口①②口 |②---|
口口口口 |----|
27
口口口口 |①---|
口①②口 |----|
口口口口 |②---|
口口口口 |----|
28
口①②口 |①---|
口口口口 |----|
口口口口 |②---|
口口口口 |----|
29
口口口口 |①---|
③口口③ |②---|
②口口② |③---|
①口口① |----|
30
口口口口 |①---|
口②①口 |----|
口口口口 |②---|
口口口口 |----|
31
口口口口 |①---|
口③口口 |②---|
口②口口 |③---|
口①口口 |----|
32
口口口口 |①---|
口口口口 |②---|
口口②口
口口①口

口口口口
口口③口
口口口口 |③---|
口④④口 |④---|
33
口③③口 |①---|
口②②口 |②---|
口①①口 |③---|
口口口口 |----|
34
口口口口 |①---|
口①②口 |----|
口口口口 |②---|
口口口口 |----|
35
口口口口 |①---|
④③③④ |②---|
口②②口 |③---|
口①①口 |④---|
36
口口口口 |①---|
口③③口 |②---|
口②②口 |③---|
口①①口 |----|
37
口口口口 |①---|
①口口② |----|
口口口口 |②---|
口口口口 |----|
38
口口口口 |①---|
口②口口 |----|
口③口口 |--②-|
口①①口 |③---|
39
口口口口 |----|
口口①口 |----|
口口②口 |--①-|
口口口口 |②---|
40
口口口口 |----|
口口口口 |----|
①①口口 |①---|
口口口口 |----|
41
口口口口 |①---|
口口口口 |----|
口口①① |----|
口口口口 |----|


不确定度: 0

最終更新:2012年11月27日 00:59