ちっぽけな勇気
FUNKY MONKEY BABYS

ADVANCED

Level: 5
BPM: 111
Notes: 330

1
口口口口 |----|
口口口口 |----|
口口口口 |----|
口口口口 |----|
2
口口口口 |①---|
②①①② |----|
②①①② |②---|
口③口口 |--③-|
3
口口⑤口 |①-②-|
口②④口 |③-④-|
口①③口 |⑤---|
⑥⑦口⑥ |⑥-⑦-|
4
⑥口⑤口 |①-②-|
⑦②④口 |③-④-|
口①③口 |⑤---|
口口口口 |⑥-⑦-|
5
口口口⑤ |①-②-|
口口口④ |③-④-|
①口口③ |⑤---|
口②②口 |----|
6
口口口口 |①---|
②①①② |----|
②①①② |②---|
③口口③ |--③-|
7
⑤④④⑤ |①-②-|
口③③口 |③-④-|
口②②口 |----|
⑥①①⑥ |⑤-⑥-|
8
⑤④④口 |①-②-|
⑥③③口 |③-④-|
口②②口 |----|
口①①口 |⑤-⑥-|
9
口口口口 |①-②-|
口口口④ |③-④-|
①②②③
口口口口

口口口⑤
口⑧⑧口
口⑦⑦口 |⑤-⑥-|
口⑥⑥口 |⑦-⑧-|
10
口①①口 |①---|
口口口口 |----|
②③③② |--②-|
②③③② |③---|
11
①②②① |----|
①②②① |----|
口口口口 |--①-|
口口口口 |②---|
12
口口口口 |----|
①口口① |----|
①口口① |①---|
口口口口 |----|
13
口②口口 |①---|
口①①口 |----|
口①①口 |----|
口口口口 |--②-|
14
⑧口④口 |①-②-|
口⑤①口 |③-④-|
口②⑥口 |⑤-⑥-|
口⑦③口 |⑦-⑧-|
15
口⑥口⑤ |①-②-|
①口口④ |③-④-|
②口口③ |⑤---|
口口口口 |--⑥-|
16
⑧口④口 |①-②-|
口⑤①口 |③-④-|
口②⑥口 |⑤-⑥-|
口⑦③口 |⑦-⑧-|
17
口⑥口⑤ |①-②-|
①口口④ |③-④-|
②口口③ |⑤---|
口口口口 |--⑥-|
18
④口⑤口 |----|
③口口口 |①-②-|
②口口口 |③-④-|
①口口口 |--⑤-|
19
口口口④ |----|
口口口③ |①-②-|
口口口② |③-④-|
口⑤口① |--⑤-|
20
口⑦③口 |①-②-|
口②⑥口 |③-④-|
口⑤①口 |⑤-⑥-|
口口④口 |⑦---|
21
口口口口 |①---|
③③口口 |----|
②②①① |②---|
口口口口 |--③-|
22
①①③③ |①---|
口口②② |--②-|
口⑤⑤口 |③---|
口④④口 |④-⑤-|
23
口口口口 |①-②-|
④①①④ |③-④-|
③口口③
②口口②

⑤口口⑤
口口口口
口口口口 |⑤---|
⑥⑥口口 |--⑥-|
24
④④口口 |①---|
⑤⑤口口 |--②-|
①①③③ |③---|
口口②② |④-⑤-|
25
⑤口②② |①---|
⑥口③③ |②-③-|
①①④④ |④---|
口口口口 |⑤-⑥-|
26
口⑦口③ |①-②-|
口⑧口④ |③-④-|
①口口⑤ |⑤-⑥-|
②口口⑥ |⑦-⑧-|
27
口口③口 |①-②-|
口口④口 |③-④-|
口①⑤口 |⑤-⑥-|
⑦②⑥⑦ |--⑦-|
28
⑤口口⑤ |①---|
⑥④④⑥ |②-③-|
①③③① |④---|
口②②口 |⑤-⑥-|
29
口②②口 |①---|
口③③口 |②-③-|
①口口① |④---|
④口口④ |----|
30
口口口口 |①---|
②①①② |----|
②①①② |②---|
口③口口 |--③-|
31
口口⑤口 |①-②-|
口②④口 |③-④-|
口①③口 |⑤---|
⑥⑦口⑥ |⑥-⑦-|
32
⑥口⑤口 |①-②-|
⑦②④口 |③-④-|
口①③口 |⑤---|
口口口口 |⑥-⑦-|
33
口口口⑤ |①-②-|
口口口④ |③-④-|
①口口③ |⑤---|
口②②口 |----|
34
口口口口 |①---|
②①①② |----|
②①①② |②---|
③口口③ |--③-|
35
⑤④④⑤ |①-②-|
口③③口 |③-④-|
口②②口 |----|
⑥①①⑥ |⑤-⑥-|
36
⑤④④口 |①-②-|
⑥③③口 |③-④-|
口②②口 |----|
口①①口 |⑤-⑥-|
37
口口口口 |①-②-|
口口口④ |③-④-|
①②②③
口口口口

口口口⑤
口⑧⑧口
口⑦⑦口 |⑤-⑥-|
口⑥⑥口 |⑦-⑧-|
38
口①①口 |①---|
口口口口 |----|
②③③② |--②-|
②③③② |③---|
39
①②②① |----|
①②②① |----|
口口口口 |--①-|
口口口口 |②---|
40
口口口口 |----|
①口口① |----|
①口口① |①---|
口口口口 |----|
41
口口口口 |①---|
口①①口 |----|
口①①口 |----|
口口口口 |----|


不确定度: 0

最終更新:2012年11月27日 00:59