ちっぽけな勇気
FUNKY MONKEY BABYS

EXTREME

Level: 7
BPM: 111
Notes: 468

1
①口口② |----|
③口口口 |----|
口口口口 |----|
口口口口 |-①②③|
2
⑭⑥⑦⑮ |①②③④|
口⑧⑨① |⑤⑥⑦⑧|
②⑩⑪③ |⑨⑩⑪⑫|
④⑫⑬⑤ |⑬-⑭⑮|
3
⑨⑧⑧⑩ |①②③④|
①⑦⑦② |⑤⑥-⑦|
③⑦⑦④ |----|
⑤口口⑥ |⑧-⑨⑩|
4
⑨⑧⑧⑨ |①②③④|
①⑦⑦② |⑤⑥-⑦|
③⑦⑦④ |----|
⑤口口⑥ |⑧-⑨-|
5
⑥⑦口口 |①-②-|
①⑤⑤① |③-④-|
②⑤⑤② |⑤---|
③④④③ |--⑥⑦|
6
口口⑤⑥ |①②③④|
①②⑦⑧ |--⑤⑥|
③④⑨⑩ |⑦⑧⑨⑩|
⑪口口⑪ |--⑪-|
7
⑨⑦⑧⑨ |①②③④|
口⑤⑥口 |⑤⑥⑦⑧|
口③④口 |----|
⑩①②⑩ |⑨-⑩-|
8
⑨⑦⑧⑨ |①②③④|
⑩⑤⑥⑩ |⑤⑥⑦⑧|
口③④口 |----|
口①②口 |⑨-⑩-|
9
③口口④ |①-②-|
⑤⑨⑨⑥ |-③④⑤|
①⑧⑧① |⑥-⑦-|
②⑦⑦② |⑧-⑨-|
10
口①①口 |①---|
②⑤⑥② |----|
②③④② |--②-|
口口口口 |③④⑤⑥|
11
口口口口 |----|
①④⑤① |----|
①②③① |--①-|
口口口口 |②③④⑤|
12
口口口口 |----|
①口口① |----|
①口口① |①---|
口口口口 |----|
13
②②口口 |①---|
口①①口 |----|
口①①口 |----|
口口口口 |--②-|
14
⑧⑧④④ |①-②-|
⑤⑤①① |③-④-|
②②⑥⑥ |⑤-⑥-|
⑦⑦③③ |⑦-⑧-|
15
⑥⑥⑤⑤ |①-②-|
④④①① |③-④-|
②②③③ |⑤---|
口口口口 |--⑥-|
16
⑧⑧④④ |①-②-|
⑤⑤①① |③-④-|
②②⑥⑥ |⑤-⑥-|
⑦⑦③③ |⑦-⑧-|
17
⑥⑥⑤⑤ |①-②-|
④④①① |③-④-|
②②③③ |⑤---|
口口口口 |--⑥-|
18
④④⑤⑤ |----|
③③口口 |①-②-|
②②口口 |③-④-|
①①口口 |--⑤-|
19
口口④④ |----|
口口③③ |①-②-|
口口②② |③-④-|
⑤⑤①① |--⑤-|
20
⑦⑦③③ |①-②-|
②②⑥⑥ |③-④-|
⑤⑤①① |⑤-⑥-|
口口④④ |⑦---|
21
口口口口 |①---|
①①口口 |----|
口口口口
①①口口

口口口口
③④②②
口口口口 |②---|
口口②② |--③④|
22
①②⑤⑥ |①②--|
口⑪③④ |--③④|
口⑨⑩口 |⑤⑥-⑦|
口⑦⑧口 |⑧⑨⑩⑪|
23
⑧口口口 |①②③④|
⑥口①⑦ |⑤⑥⑦⑧|
④口口⑤
②口口③

口口口⑨
口口口口
口口口口 |⑨---|
⑩⑪口口 |--⑩⑪|
24
口口口口 |①②--|
口口口口 |--③④|
①②口口
口口③④

⑦⑧口口
⑨⑩口口
⑪口⑤⑥ |⑤⑥-⑦|
口口口口 |⑧⑨⑩⑪|
25
⑧⑨②③ |①-②③|
⑩⑪④⑤ |④⑤⑥⑦|
口①⑥⑦ |----|
口口口口 |⑧⑨⑩⑪|
26
⑫⑬⑤⑥ |①②③④|
⑭⑮⑦⑧ |⑤⑥⑦⑧|
①②⑨⑩ |⑨⑩⑪-|
③④⑪口 |⑫⑬⑭⑮|
27
口口⑤⑥ |①②③④|
口口⑦⑧ |⑤⑥⑦⑧|
①②口口
③④口口

⑫口口⑫
口口口口
口口⑨⑩ |⑨⑩⑪-|
口口⑪口 |--⑫-|
28
口口口口 |①---|
①口口① |②-③-|
口③③口
口②②口

⑤口口⑤
⑥④④⑥
口口口口 |④---|
口口口口 |⑤-⑥-|
29
⑤②②⑥ |①---|
⑦③③口 |②-③-|
①④④① |④---|
口④④口 |-⑤⑥⑦|
30
⑭⑥⑦⑮ |①②③④|
口⑧⑨① |⑤⑥⑦⑧|
②⑩⑪③ |⑨⑩⑪⑫|
④⑫⑬⑤ |⑬-⑭⑮|
31
⑨⑧⑧⑩ |①②③④|
①⑦⑦② |⑤⑥-⑦|
③⑦⑦④ |----|
⑤口口⑥ |⑧-⑨⑩|
32
⑨⑧⑧⑨ |①②③④|
①⑦⑦② |⑤⑥-⑦|
③⑦⑦④ |----|
⑤口口⑥ |⑧-⑨-|
33
⑥⑦口口 |①-②-|
①⑤⑤① |③-④-|
②⑤⑤② |⑤---|
③④④③ |--⑥⑦|
34
口口⑤⑥ |①②③④|
①②⑦⑧ |--⑤⑥|
③④⑨⑩ |⑦⑧⑨⑩|
⑪口口⑪ |--⑪-|
35
⑨⑦⑧⑨ |①②③④|
口⑤⑥口 |⑤⑥⑦⑧|
口③④口 |----|
⑩①②⑩ |⑨-⑩-|
36
⑨⑦⑧⑨ |①②③④|
⑩⑤⑥⑩ |⑤⑥⑦⑧|
口③④口 |----|
口①②口 |⑨-⑩-|
37
③口口④ |①-②-|
⑤⑨⑨⑥ |-③④⑤|
①⑧⑧① |⑥-⑦-|
②⑦⑦② |⑧-⑨-|
38
口①①口 |①---|
②⑤⑥② |----|
②③④② |--②-|
口口口口 |③④⑤⑥|
39
口口口口 |----|
①④⑤① |----|
①②③① |--①-|
口口口口 |②③④⑤|
40
口口口口 |----|
①口口① |----|
①口口① |①---|
口口口口 |----|
41
口口口口 |①---|
口①①口 |----|
口①①口 |----|
口口口口 |----|


不确定度: 0

最終更新:2012年11月27日 00:59