YELL ~エール~

BASIC

Level: 2
BPM: 109
Notes: 166

1
口口口口 |----|
口口口口 |----|
口口口口 |----|
口口口口 |----|
2
口口口口 |----|
口①②口 |①---|
口口口口 |②---|
口口口口 |----|
3
口口口口 |①---|
口口口口 |②---|
①②③④ |③---|
口口口口 |④---|
4
口①②口 |----|
口口口口 |①---|
口口口口 |②---|
口口口口 |----|
5
口口口口 |①---|
①②③④ |②---|
口口口口 |③---|
口口口口 |④---|
6
口口口口 |----|
口口口口 |①---|
①口口口 |②---|
口②③口 |③---|
7
口③口口 |①---|
②口口口 |----|
口口口① |②---|
口口口口 |③---|
8
口口①口 |①---|
口口口② |----|
口口③口 |②---|
口口口口 |③---|
9
口④④口 |①---|
口②③口 |②---|
口①口口 |③---|
口口口口 |④---|
10
口口口口 |----|
口①②口 |①---|
口口口口 |②---|
口口口口 |----|
11
口口口口 |①---|
口口口口 |②---|
①②③④ |③---|
口口口口 |④---|
12
口①②口 |----|
口口口口 |①---|
口口口口 |②---|
口口口口 |----|
13
口口口口 |①---|
①②③④ |②---|
口口口口 |③---|
口口口口 |④---|
14
口②③口 |----|
①口口口 |①---|
口口口口 |②---|
口口口口 |③---|
15
口口口口 |①---|
口口口① |--②-|
口②②口 |----|
口口口口 |----|
16
口口口口 |①---|
①口口④ |②---|
口②③口 |③---|
口口口口 |④---|
17
②③口口 |①---|
口①①口 |----|
口口口口 |②---|
口口口口 |③---|
18
口口①② |①---|
口口口③ |②---|
口口口④ |③---|
口口口口 |④---|
19
口口口② |①---|
口口口口 |----|
口口口口 |----|
口口口① |②---|
20
③②①口 |①---|
④口口口 |②---|
口口口口 |③---|
口口口口 |④---|
21
口口口口 |①---|
③口口口 |②---|
①口口口 |----|
②口口口 |③---|
22
口口口口 |①---|
口①②③ |②---|
口口口口 |③---|
口口口口 |----|
23
口口口口 |①---|
口口口口 |②---|
口③②① |③---|
口口口口 |----|
24
口口口口 |①---|
①②③④ |②---|
口口口口 |③---|
口口口口 |④---|
25
口①①口 |①---|
口②②口 |②---|
口③③口 |③---|
口④④口 |④---|
26
口口口口 |----|
口①②口 |--①-|
口口口口 |--②-|
口口口口 |----|
27
①②③④ |①---|
口口口口 |②---|
口口口口 |③---|
口口口口 |④---|
28
口口口③ |①---|
口口①口 |②---|
口②口口 |----|
口口口口 |③---|
29
③②①口 |①---|
口④口口 |②---|
口口口口 |③---|
口口口口 |④---|
30
③口口口 |①---|
口口口口 |②---|
口口①口 |----|
口口口② |③---|
31
口①②口 |①---|
口口③口 |②---|
口口④口 |③---|
口口口口 |④---|
32
口口口口 |①---|
口口口口 |----|
②口口口 |----|
口口①口 |②---|
33
口口口口 |①---|
口口口口 |②---|
口①②③ |③---|
口口口④ |④---|
34
口口口口 |①---|
口口口口 |②---|
口④④口 |③---|
③②①口 |④---|
35
①②③④ |①---|
口口口口 |②---|
口口口口 |③---|
口口口口 |④---|
36
口口口③ |①---|
口口①口 |②---|
口②口口 |----|
口口口口 |③---|
37
③②①口 |①---|
口④口口 |②---|
口口口口 |③---|
口口口口 |④---|
38
口口③口 |①---|
口口口口 |②---|
口口①口 |----|
口口口② |③---|
39
口口口口 |①---|
口口口① |②---|
口口②口 |③---|
口口④③ |④---|
40
口②口口 |①---|
口口口口 |----|
口口口① |----|
口口口口 |②---|
41
口口口口 |①---|
①口口口 |②---|
口②口口 |③---|
③④口口 |④---|
42
③④口口 |①---|
口②口口 |②---|
①口口口 |③---|
口口口口 |④---|
43
口口口口 |①---|
口①①口 |----|
口口口口 |----|
口口口口 |----|
44
口②③口 |----|
①口口口 |①---|
口口口口 |②---|
口口口口 |③---|
45
口口口口 |①---|
口②口① |----|
口口口口 |②---|
口口口口 |----|
46
口②口口 |①---|
口口①口 |----|
口口口口 |----|
口口口口 |②---|
47
口口①口 |①---|
口②③口 |②---|
口④口口 |③---|
口口口口 |④---|
48
口口口口 |①---|
口口口口 |②---|
口④①口 |③---|
口②③口 |④---|
49
口口口口 |①---|
口②②口 |----|
口口①口 |----|
口口口口 |②---|
50
口①①口 |①---|
口口口口 |----|
口口口口 |----|
口口口口 |----|
51
口口口口 |①---|
口①①口 |----|
口口口口 |----|
口口口口 |----|


不确定度: 0

最終更新:2012年11月27日 00:57