YELL ~エール~

ADVANCED

Level: 5
BPM: 109
Notes: 293

1
口口口口 |----|
口口口口 |----|
口口口口 |----|
口口口口 |----|
2
口②③口 |----|
①口口④ |①-②-|
口口口⑤ |③-④-|
口口口口 |--⑤-|
3
口口口口 |①-②-|
④⑤⑥⑦ |③-④-|
③②①⑧ |⑤-⑥-|
口口口口 |⑦-⑧-|
4
口②③口 |----|
①口口④ |①-②-|
口口口⑤ |③-④-|
口口口口 |--⑤-|
5
口口口口 |①-②-|
口口口口 |③-④-|
③②①⑧ |⑤-⑥-|
④⑤⑥⑦ |⑦-⑧-|
6
口⑥①口 |----|
⑤口口② |①-②-|
口④③口 |③-④-|
口口口口 |⑤-⑥-|
7
口口①口 |①---|
口②②口 |--②-|
口口口口
口口口口

③④⑤口
口口口口
口口口口 |--③-|
口口口口 |④-⑤-|
8
口口口① |①-②-|
口③口② |--③-|
④⑤⑥口 |--④-|
口口口口 |⑤-⑥-|
9
②口口② |①---|
口口口口 |②---|
口口口①
口口口口

口口口口
③口口③
④口口④ |③---|
口口口口 |④---|
10
⑤①口口 |----|
口口②口 |①-②-|
口③口口 |③-④-|
口口④口 |--⑤-|
11
⑧⑦口口 |①-②-|
⑥①口口 |③-④-|
②⑤口口 |⑤-⑥-|
④③口口 |⑦-⑧-|
12
口口①⑤ |----|
口②口口 |①-②-|
口口③口 |③-④-|
口④口口 |--⑤-|
13
口口⑦⑧ |①-②-|
口口①⑥ |③-④-|
口口⑤② |⑤-⑥-|
口口③④ |⑦-⑧-|
14
口②③口 |----|
①口口④ |①-②-|
口口口⑤ |③-④-|
口口口口 |⑤---|
15
口口口口 |①---|
口②②口 |--②-|
口①①口 |----|
口口口口 |----|
16
口⑧①口 |①-②-|
⑦口口② |③-④-|
⑥口口③ |⑤-⑥-|
口⑤④口 |⑦-⑧-|
17
口口口口 |①---|
④①①④ |--②-|
③①①③ |③---|
口②②口 |④---|
18
①②⑤① |①-②-|
口⑥③口 |③-④-|
口④⑦口 |--⑤-|
口口口口 |⑥-⑦-|
19
①②③口 |----|
口口口口 |----|
口口口口 |--①-|
口口口口 |②-③-|
20
口口口① |①-②-|
口④③② |③-④-|
⑤⑥⑦口 |--⑤-|
口口口口 |⑥-⑦-|
21
③口口口 |--①-|
口④口口 |②---|
口口口口 |----|
口②①口 |③-④-|
22
口口口⑤ |①-②-|
口口⑥口 |③-④-|
①④口口 |----|
③②口口 |--⑤⑥|
23
口⑤⑥口 |①-②-|
口口口口 |③-④-|
口口④① |--⑤-|
口口②③ |--⑥-|
24
口口口口 |①--②|
口①②口 |--③-|
口③④口 |④-⑤-|
口⑤⑥口 |--⑥-|
25
①口口口 |①-②-|
口②⑦口 |③-④-|
口⑥③口 |⑤-⑥-|
⑤口口④ |⑦---|
26
口②③口 |----|
①口口④ |--①-|
口口口⑤ |②-③-|
口口口口 |④-⑤-|
27
②③④⑤ |①-②-|
①口⑦⑥ |③-④-|
口口口口 |⑤---|
口口口口 |⑥-⑦-|
28
口口口口 |--①-|
口①口口 |----|
②③④口 |--②-|
口口口口 |③-④-|
29
口口口口 |①-②-|
口口⑦口 |③-④-|
口⑥口① |⑤---|
⑤④③② |⑥-⑦-|
30
口①②口 |--①-|
口③口口 |----|
口口④口 |--②-|
口口口口 |③-④-|
31
⑥⑤口口 |①-②-|
⑦口④口 |③-④-|
⑧③口口 |⑤-⑥-|
口①②口 |⑦-⑧-|
32
口①口口 |----|
口口②口 |----|
口③口口 |--①-|
口口口口 |②-③-|
33
口口⑤⑥ |①-②-|
口④口口 |③-④-|
口口③口 |--⑤-|
口②①口 |--⑥-|
34
口口口口 |--①-|
口口口① |--②-|
口口口② |--③-|
口⑤④③ |④-⑤-|
35
⑦⑥⑤④ |①-②-|
口口③口 |③-④-|
口②口口 |⑤---|
①口口口 |⑥-⑦-|
36
②③④口 |--①-|
口①口口 |----|
口口口口 |--②-|
口口口口 |③-④-|
37
口口口① |①-②-|
口口②口 |③-④-|
口③口口 |⑤---|
④⑤⑥⑦ |⑥-⑦-|
38
口②口口 |--①-|
口口③口 |----|
口④①口 |--②-|
口口口口 |③-④-|
39
口口⑤⑥ |①-②-|
口④口⑦ |③-④-|
口口③⑧ |⑤-⑥-|
口②①口 |⑦-⑧-|
40
口口①口 |----|
口②口口 |----|
口口③口 |--①-|
口口口口 |②-③-|
41
⑥⑤口口 |①-②-|
口口④口 |③-④-|
口③口口 |--⑤-|
口①②口 |--⑥-|
42
口口口口 |--①-|
①口口口 |--②-|
②④④口 |--③-|
③口口口 |--④-|
43
②③⑤④ |①---|
①①①① |--②-|
口口口口 |③---|
口口口口 |④-⑤-|
44
口口口口 |--①-|
①②③④ |②-③-|
口⑦⑥⑤ |④-⑤-|
口口口口 |⑥-⑦-|
45
口口口口 |----|
口口口口 |①-②-|
口口⑥⑤ |③-④-|
①②③④ |⑤-⑥-|
46
①②③口 |----|
口口口口 |----|
口口口口 |--①-|
口口口口 |②-③-|
47
口口口口 |--①-|
口③②① |②-③-|
④⑤⑥口 |--④-|
口口口口 |⑤-⑥-|
48
口④口口 |--①-|
口口⑤口 |②-③-|
口⑥口口 |--④-|
口③②① |⑤-⑥-|
49
口口①口 |----|
口②口口 |----|
口口③口 |--①-|
口口口口 |②-③-|
50
口口口口 |--①-|
①口口② |②-③-|
口③④口 |④-⑤-|
⑤口口⑥ |⑥---|
51
①①①① |①---|
口口口口 |----|
口口口口 |----|
口口口口 |----|


不确定度: 0

最終更新:2012年11月27日 00:57