Plum
肥塚良彦

ADVANCED

Level: 7
BPM: 256
Notes: 528

1
口口口口 |----|
口口口口 |----|
口口口口 |----|
口口口口
2
口口口口 |----|
口口口口 |----|
口口口口 |----|
口口口口
3
①口口① |①---|
口③②口 |②---|
口口口口 |③---|
口口口口
4
口口口口 |①---|
口口口口 |②---|
①口口① |③---|
口③②口
5
①口口① |①---|
口③②口 |②---|
口口口口 |③---|
口口口口
6
口口口口 |①---|
口口口③ |②---|
口口口② |③---|
口口口①
7
口口口口 |①---|
口口口口 |②---|
口口口口 |③---|
①②③口
8
①口口口 |①---|
②口口口 |②---|
③口口口 |③---|
口口口口
9
口③②① |①---|
口口口口 |②---|
口口口口 |③---|
口口口口
10
口口口口 |①---|
口口口口 |----|
口①①口 |----|
口口口口
11
口口口口 |①---|
口口口③ |②---|
口口口② |③---|
口口口①
12
口口口口 |①---|
口口口口 |②---|
口口口口 |③---|
①②③口
13
①口口口 |①---|
②口口口 |②---|
③口口口 |③---|
口口口口
14
口③②① |①---|
口口口口 |②---|
口口口口 |③---|
口口口口
15
口口口口 |①-②-|
②①③④ |--③-|
口口口口 |④---|
口口口口
16
口②②口 |①---|
口口口口 |②---|
口口口口
口①①口
17
口口口口 |①-②-|
②①③④ |--③-|
口口口口 |④---|
口口口口
18
口②②口 |①---|
口口口口 |②---|
口口口口
口①①口
19
口口口口 |①-②-|
②①③④ |--③-|
口口口口 |④---|
口口口口
20
口②②口 |①---|
口口口口 |②---|
口口口口
口①①口
21
口口口口 |①-②-|
②①③④ |--③-|
口口口口 |④---|
口口口口
22
口②②口 |①---|
口口口口 |②---|
口口口口
口①①口
23
口口口口 |①-②-|
②①③④ |--③-|
口口口口 |④---|
口口口口
24
口②②口 |①---|
口口口口 |②---|
口口口口
口①①口
25
口口口口 |①-②-|
②①③④ |--③-|
口口口口 |④---|
口口口口
26
口②②口 |①---|
口口口口 |②---|
口口口口
口①①口
27
口口口口 |①---|
口口口口 |--②-|
②口口② |----|
①口口①
28
口②②口 |①---|
口①①口 |②---|
口口口口
口口口口
29
口口口口 |①---|
口口口口 |--②-|
②口口② |----|
①口口①
30
口口口口 |①---|
口①①口 |----|
口①①口
口口口口
31
口口口口 |----|
①口口② |①---|
口口口口 |②---|
口口口口
32
口口口口 |①---|
口②②口 |②---|
口口口口 |----|
口①①口
33
口口口口 |----|
口口口口 |①---|
①口口② |②---|
口口口口
34
口口口口 |①---|
口①①口 |----|
口口口口 |----|
口口口口
35
口口口口 |----|
①口口② |①---|
口口口口 |②---|
口口口口
36
口口口口 |①---|
口③③口 |②---|
口②②口 |③---|
口①①口
37
①口口① |①---|
②口口② |②---|
③口口③ |③---|
口口口口
38
口口口口 |①---|
口口口口 |----|
口口口口 |----|
①口口①
39
③口口③ |①---|
口①①口 |②---|
②口口② |③---|
口口口口
40
口口口口 |①---|
③口口③ |②---|
口①①口 |③---|
②口口②
41
口①①口 |①---|
口口口口 |----|
口口口口 |----|
口口口口
42
③口口口 |①---|
口①口口 |②---|
口口口口 |③---|
②口口口
43
口口口③ |①---|
口口①口 |②---|
口口口口 |③---|
口口口②
44
口口口口 |①---|
③口口③ |②---|
②口口② |③---|
口①①口
45
③口口口 |①---|
口①口口 |②---|
口口口口 |③---|
②口口口
46
口口口③ |①---|
口口①口 |②---|
口口口口 |③---|
口口口②
47
口口口口 |----|
①口口② |①---|
口口口口 |②---|
口口口口
48
口口口口 |①---|
口②②口 |②---|
口口口口 |----|
口①①口
49
口口口口 |----|
口口口口 |①---|
①口口② |②---|
口口口口
50
口口口口 |①---|
口①①口 |----|
口口口口 |----|
口口口口
51
口口口口 |----|
①口口② |①---|
口口口口 |②---|
口口口口
52
口口口口 |①---|
口③③口 |②---|
口②②口 |③---|
口①①口
53
①口口① |①---|
②口口② |②---|
③口口③ |③---|
口口口口
54
口口口口 |①---|
口口口口 |----|
口口口口 |----|
①口口①
55
③口口③ |①---|
口①①口 |②---|
②口口② |③---|
口口口口
56
口口口口 |①---|
③口口③ |②---|
口①①口 |③---|
②口口②
57
口①①口 |①---|
口②②口 |②---|
③口口③ |③---|
口口口口
58
口口口口 |①---|
口口口口 |----|
口口口口 |----|
①口口①
59
①①①① |①---|
口口口口 |----|
口口口口 |----|
口口口口
60
口口口口 |①---|
①①①① |----|
口口口口 |----|
口口口口
61
口口口口 |①---|
口口口口 |----|
①①①① |----|
口口口口
62
口口口口 |①---|
口口口口 |----|
口口口口 |----|
①①①①
63
①①①① |①---|
口口口口 |----|
口口口口 |----|
口口口口
64
口口口口 |①---|
①①①① |----|
口口口口 |----|
口口口口
65
口口口口 |①---|
口口口口 |----|
①①①① |----|
口口口口
66
②口口③ |①---|
口口口口 |②---|
口口口口 |③---|
①①①①
67
口口口口 |①-②-|
①②口③ |--③-|
口口口口 |--④-|
口口口④
68
口③③口 |①---|
口口口口 |②---|
口②②口 |③---|
口口①口
69
③口口③ |--①-|
②口口② |--②-|
①口口① |--③-|
口口口口
70
口口口口 |----|
口口口口 |----|
口口口口 |----|
口口口口
71
口口口口 |①---|
口口口口 |②---|
③口口口 |③---|
②①①口
72
②口口口 |①---|
①口口口 |②---|
口口口口
口口口口
73
口口口口 |①---|
口口口口 |②---|
口①①③ |③---|
口口口②
74
口口口② |①---|
口口口① |②---|
口口口口
口口口口
75
口口口口 |①---|
口口口口 |②---|
③口口③ |③---|
②①①②
76
口③③口 |①---|
口②②口 |②---|
口①①口 |③---|
口口口口
77
①口口① |①---|
口口口口 |----|
口口口口 |----|
口口口口
78
口口口口 |①---|
口口口口 |----|
①口口① |----|
口口口口
79
口口口口 |①---|
口口口口 |②---|
③口口口 |③---|
②①①口
80
②口口口 |①---|
①口口口 |②---|
口口口口
口口口口
81
口口口口 |①---|
口口口口 |②---|
口①①③ |③---|
口口口②
82
口口口② |①---|
口口口① |②---|
口口口口
口口口口
83
口口口口 |①---|
口口口口 |②---|
③口口③ |③---|
②①①②
84
口③③口 |①---|
口②②口 |②---|
口①①口 |③---|
口口口口
85
①口口① |①---|
②口口② |②---|
③口口③ |③---|
口口口口
86
口口口口 |①---|
口③③口 |②---|
口②②口 |③---|
口①①口
87
①口口① |①---|
口口口口 |----|
口口口口 |----|
口口口口
88
口口口口 |①---|
口③③口 |②---|
口②②口 |③---|
①口口①
89
①口口① |①---|
口口口口 |----|
口口口口 |----|
口口口口
90
口口口口 |①---|
口③③口 |②---|
口②②口 |③---|
①口口①
91
①口口① |①---|
口口口口 |----|
口口口口 |----|
口口口口
92
口口口口 |①---|
口口口口 |----|
口口口口 |----|
①口口①
93
①口口① |①---|
口口口口 |----|
口口口口 |----|
口口口口
94
口口口口 |①---|
口口口口 |----|
口口口口 |----|
①口口①
95
①①①① |①---|
口口口口 |----|
口口口口 |----|
口口口口
96
口口口口 |①---|
口口口口 |----|
口口口口 |----|
①①①①
97
口口口口 |①---|
口口口口 |----|
口①①口 |----|
口口口口
98
①口口① |①---|
②口口② |--②-|
口口口口 |----|
口口口口
99
口口口口 |①---|
口口口口 |----|
①口口① |----|
口口口口
100
口口口口 |----|
口口口口 |----|
口口口口 |----|
口口口口
101
口口口口 |----|
口口口口 |----|
口口口口 |----|
口口口口
102
口口口口 |----|
口口口口 |----|
口口口口 |----|
口口口口
103
口口口口 |----|
口口口口 |①---|
口口口口 |----|
口①①口
104
口口口口 |①---|
口①①口 |--②-|
口口口口 |----|
②口口口
105
口口口口 |----|
口口口口 |①---|
口①①口 |----|
口口口口
106
口①①口 |①---|
口口口口 |----|
口口口口 |----|
口口口口
107
①口口① |①---|
口口口口 |----|
口口口口 |----|
口口口口
108
口口口口 |①---|
①口口① |----|
口口口口 |----|
口口口口
109
口口口口 |①---|
口口口口 |----|
①口口① |----|
口口口口
110
口口口口 |①---|
口口口口 |----|
口口口口 |----|
①口口①
111
①①①① |①---|
口口口口 |----|
口口口口 |----|
口口口口
112
口口口口 |①---|
①①①① |----|
口口口口 |----|
口口口口
113
口口口口 |①---|
口口口口 |----|
①①①① |----|
口口口口
114
口口口口 |①---|
口口口口 |----|
口口口口 |----|
①①①①
115
①①①① |①---|
口口口口 |----|
口口口口 |----|
口口口口
116
口口口口 |①---|
①①①① |----|
口口口口 |----|
口口口口
117
口口口口 |①---|
口口口口 |----|
①①①① |----|
口口口口
118
②口口③ |①---|
口口口口 |②---|
口口口口 |③---|
①①①①
119
口口口口 |----|
口口口口 |----|
口口口口 |----|
口口口口
120
口口口口 |①---|
口口口口 |②---|
③口口口 |③---|
②①①口
121
②口口口 |①---|
①口口口 |②---|
口口口口
口口口口
122
口口口口 |①---|
口口口口 |②---|
口①①③ |③---|
口口口②
123
口口口② |①---|
口口口① |②---|
口口口口
口口口口
124
口口口口 |①---|
口口口口 |②---|
③口口③ |③---|
②①①②
125
口③③口 |①---|
口②②口 |②---|
口①①口 |③---|
口口口口
126
①口口① |①---|
口口口口 |----|
口口口口 |----|
口口口口
127
口口口口 |①---|
口口口口 |----|
①口口① |----|
口口口口
128
口口口口 |①---|
口口口口 |②---|
③口口口 |③---|
②①①口
129
②口口口 |①---|
①口口口 |②---|
口③③口 |③---|
口口口口
130
口口口口 |①---|
口口口③ |②---|
口口口② |③---|
口口口①
131
口口口① |①---|
口口口口 |②---|
口口口口 |③---|
③②②③
132
口口口口 |①---|
口③③口 |②---|
①②②① |③---|
口口口口
133
②①①② |①---|
③口口③ |②---|
口口口口 |③---|
口口口口
134
口口口口 |①---|
口口口口 |②---|
①③③① |③---|
口②②口
135
②口口② |①---|
③①①③ |②---|
口口口口 |③---|
口口口口
136
口②②口 |①---|
口口口口 |--②-|
①口口① |----|
口口口口
137
口口口口 |①---|
口②②口 |--②-|
口口口口 |----|
①口口①
138
②口口② |①---|
口口口口 |--②-|
口口口口 |----|
口①①口
139
口①①口 |①---|
口②②口 |--②-|
口口口口 |----|
口口口口
140
②口口② |①---|
口口口口 |--②-|
口①①口 |----|
口口口口
141
口口口口 |①---|
②口口② |--②-|
口口口口 |----|
口①①口
142
口口口口 |①---|
口②②口 |--②-|
口口口口 |----|
①口口①
143
①口口① |①---|
②口口② |--②-|
口口口口 |----|
口口口口
144
口口口口 |①---|
口口口口 |----|
①口口① |----|
口口口口
145
口口口口 |----|
口口口口 |----|
口口口口 |----|
口口口口
146
口口口口 |----|
口口口口 |----|
口口口口 |----|
口口口口
147
口口口口 |----|
口口口口 |----|
口口口口 |----|
口口口口
148
③口口口 |①---|
口①口口 |②---|
口口口口 |③---|
②口口口

BPM: 246
149
口口口③ |①---|
口口①口 |②---|
口口口口 |③---|
口口口②

BPM: 216
150
口口口口 |①---|
口口口口 |②---|
口①①口
口②②口

BPM: 166

口口口口
③口口③
口口口口 |③---|
口口口口
151
①①①① |①---|
口口口口 |----|
口口口口 |----|
口口口口


不確定度: 0

タグ:

+ タグ編集
  • タグ:

このサイトはreCAPTCHAによって保護されており、Googleの プライバシーポリシー利用規約 が適用されます。

最終更新:2013年03月29日 20:33