YELL ~エール~

EXTREME

Level: 6
BPM: 109
Notes: 444

1
口口口口 |----|
口口口口 |----|
口口口口 |----|
口口口口 |----|
2
口①口⑤ |----|
口口②口 |①-②-|
口③口口 |③-④-|
⑤口④口 |--⑤-|
3
③口④口 |①-②-|
②⑤口① |③-④-|
①口⑥② |⑤-⑥-|
口⑦⑧③ |⑦-⑧-|
4
①⑤①口 |----|
口②口② |①-②-|
③口③口 |③-④-|
口④口④ |--⑤-|
5
④口③⑤ |①-②-|
⑧口口⑧ |③-④-|
②⑥⑦① |⑤-⑥-|
口口口口 |⑦-⑧-|
6
②口①口 |----|
口口口口 |①-②-|
口口口口
口①口②

口口⑥⑤
口③口④
④口③口 |③-④-|
⑤⑥口口 |⑤-⑥-|
7
口①口口 |①---|
口②②口 |--②-|
口②②口
口口①口

③④⑤口
口口口口
口口口口 |--③-|
口⑤④③ |④-⑤-|
8
口口口① |①-②-|
口口口② |--③-|
②③③口
①口口口

⑤④④⑤
⑥口口⑥
口口口口 |--④-|
口口口口 |⑤-⑥-|
9
④④④④ |①---|
口③③口 |②---|
①②②① |③---|
口口口口 |④---|
10
口口口口 |----|
①②③④ |①-②-|
口口口⑤ |③-④-|
口口口口 |--⑤-|
11
口⑤⑥口 |--①-|
④口口⑦ |②-③-|
③口口口 |④-⑤-|
口②①口 |⑥-⑦-|
12
口②口④ |----|
①口③口 |①-②-|
口口口⑤ |③-④-|
口口口口 |--⑤-|
13
口口口口 |①-②-|
④口口口 |③-④-|
③口口口
口②①口

口⑤口口
口口⑥口
口⑦口口 |⑤-⑥-|
口口⑧口 |⑦-⑧-|
14
④③②① |----|
口口口口 |①-②-|
口⑤⑤口 |③-④-|
①②③④ |⑤---|
15
②口口② |①---|
口①①口 |--②-|
口口口口 |----|
口口口口 |----|
16
④①口口 |①-②-|
口②③口 |③-④-|
口③②口
口口①④

口口口口
⑤⑦⑧⑥
⑥⑧⑦⑤ |⑤-⑥-|
口口口口 |⑦-⑧-|
17
口口①口 |①---|
口口口口 |--②-|
口②②口
口①口口

④④④④
口③③口
口口口口 |③---|
口口口口 |④---|
18
口口口口 |①-②-|
①口口④ |③-④-|
口②③口
口口口口

口口口口
口口⑤口
口⑥口口 |--⑤-|
口口⑦口 |⑥-⑦-|
19
口③②① |----|
口口口口 |----|
口口口口 |--①-|
口口口口 |②-③-|
20
①口口口 |①-②-|
口②口⑥ |③-④-|
口口③⑤ |--⑤-|
口⑦⑦④ |⑥-⑦-|
21
口②②口 |--①-|
口①①口 |②---|
口口口口
口口口口

③④口口
口口口口
口口口口 |----|
口口口口 |③-④-|
22
口口⑥⑤ |①-②-|
口①口口 |③-④-|
口②口口 |----|
口③④口 |--⑤⑥|
23
口口口口 |①-②-|
口口①口 |③-④-|
口口②口
口④③口

口口口口
⑤口口⑤
口⑥⑥口 |--⑤-|
口口口口 |--⑥-|
24
②③口口 |①--②|
口口口② |--③-|
口口口③
口①①口

口口④⑤
口口口口
口⑥⑥口 |④-⑤-|
口口⑤④ |--⑥-|
25
①口口③ |①-②-|
⑥口口⑤ |③-④-|
④⑦⑦② |⑤-⑥-|
口⑦⑦口 |⑦---|
26
③口口③ |----|
④口②④ |--①-|
⑤①口⑤ |②-③-|
口口口口 |④-⑤-|
27
口①④口 |①-②-|
口②③口 |③-④-|
口③②口
口④①口

⑤口口口
⑥口⑦口
口⑦口⑥ |⑤---|
口口口⑤ |⑥-⑦-|
28
②①①口 |--①-|
口③口④ |----|
④口③口 |--②-|
口口口② |③-④-|
29
口②①口 |①-②-|
③口④口 |③-④-|
口④口③
口①②口

口⑦⑥⑤
口口口口
口口口口 |⑤---|
⑤口口口 |⑥-⑦-|
30
口口口口 |--①-|
①①①① |----|
口口口口
口口口口

口口口口
④口口④
③口口③ |--②-|
②口口② |③-④-|
31
口⑧①口 |①-②-|
口②⑦口 |③-④-|
口⑥③口 |⑤-⑥-|
口④⑤口 |⑦-⑧-|
32
口口口口 |----|
③口口③ |----|
口②②口 |--①-|
①口口① |②-③-|
33
①②口① |①-②-|
口口③口 |③-④-|
口④口口 |--⑤-|
口⑥⑤口 |--⑥-|
34
③口口③ |--①-|
④②口④ |--②-|
⑤口①⑤ |--③-|
口口口口 |④-⑤-|
35
口①④口 |①-②-|
口②③口 |③-④-|
口③②口
口④①口

口口口⑤
⑥口⑦口
口⑦口⑥ |⑤---|
⑤口口口 |⑥-⑦-|
36
②①①口 |--①-|
口③口④ |----|
④口③口 |--②-|
口口口② |③-④-|
37
口②①口 |①-②-|
③口④口 |③-④-|
口④口③
口①②口

口⑦⑥⑤
口口口口
口口口口 |⑤---|
⑤口口口 |⑥-⑦-|
38
口口口口 |--①-|
④①①④ |----|
③①①③ |--②-|
②口口② |③-④-|
39
口⑧①口 |①-②-|
口②⑦口 |③-④-|
口⑥③口 |⑤-⑥-|
口④⑤口 |⑦-⑧-|
40
口口口口 |----|
③口口③ |----|
②口口② |--①-|
①口口① |②-③-|
41
①②口① |①-②-|
口口③口 |③-④-|
口④口口 |--⑤-|
口⑥⑤口 |--⑥-|
42
③口口③ |--①-|
④②口④ |--②-|
口口①口 |--③-|
口口口口 |--④-|
43
口口口口 |①---|
口②口口 |--②-|
①口②①
口口口口

口口口③
④口⑤口
口⑤口④ |③---|
③口口口 |④-⑤-|
44
口口口① |--①-|
③口口② |②-③-|
②口口③
①口口口

④口口口
口⑤⑥⑦
⑦⑥⑤口 |④-⑤-|
口口口④ |⑥-⑦-|
45
⑥①口③ |----|
⑤②口④ |①-②-|
④口②⑤ |③-④-|
③口①⑥ |⑤-⑥-|
46
①②③口 |----|
口口口口 |----|
口①②③ |--①-|
口口口口 |②-③-|
47
口口口口 |--①-|
口③②① |②-③-|
口口口口
③②①口

④口口④
⑤口口⑤
⑥口口⑥ |--④-|
口口口口 |⑤-⑥-|
48
口口口④ |--①-|
⑥②②⑤ |②-③-|
⑤③③⑥ |--④-|
④①①口 |⑤-⑥-|
49
②口口口 |----|
③①口口 |----|
口口①③ |--①-|
口口口② |②-③-|
50
口口口口 |--①-|
口②①口 |②-③-|
口④③口 |④-⑤-|
口⑥⑤口 |⑥---|
51
①①①① |①---|
①①①① |----|
口口口口 |----|
口口口口 |----|


不确定度: 0

最終更新:2012年11月27日 00:56