シャナナ☆
MINMI

BASIC

Level: 2
BPM: 156
Notes: 182

1
口口口口 |----|
口口口口 |----|
口口口口 |----|
口口口口 |----|
2
口①口口 |①---|
口口口口 |----|
口口口口 |----|
口口口口 |----|
3
口口口口 |----|
口口口口 |----|
口口口口 |----|
口口口口 |----|
4
口口①口 |①---|
口口口口 |----|
口口口口 |----|
口口口口 |----|
5
口口口口 |----|
口口口口 |----|
口口口口 |----|
口口口口 |----|
6
口口口口 |①---|
口①口口 |----|
口口口口 |----|
口口口口 |----|
7
口口口口 |①---|
口口①口 |----|
口口口口 |----|
口口口口 |----|
8
口口口口 |①---|
口口口口 |----|
口①口口 |----|
口口口口 |----|
9
口口口口 |①---|
口口口口 |----|
口口①口 |----|
口口口口 |----|
10
口口口口 |①---|
口口口① |----|
口口口口 |----|
口口口口 |----|
11
口口口口 |----|
口口口口 |----|
口口口口 |----|
口口口口 |----|
12
口口口口 |①---|
①口口口 |----|
口口口口 |----|
口口口口 |----|
13
口①①口 |①---|
口口口口 |----|
口口口口 |----|
口口口口 |----|
14
口口口口 |①---|
①②口口 |----|
口口口口 |②---|
口口口口 |----|
15
口口口口 |①---|
口口①② |----|
口口口口 |②---|
口口口口 |----|
16
口口口口 |①---|
口口口口 |----|
口口②① |②---|
口口口口 |----|
17
口口口口 |①---|
口口口口 |----|
②①口口 |②---|
口口口口 |----|
18
口口口口 |①---|
口口口口 |----|
口口②口 |②---|
口①口口 |----|
19
口口②口 |①---|
口①口口 |----|
口口口口 |②---|
口口口口 |----|
20
口口口口 |①---|
口①①口 |----|
口口口口 |----|
口口口口 |----|
21
口口口口 |----|
口口口口 |----|
口②①口 |①---|
口口口口 |②---|
22
口口口口 |----|
口口口口 |①---|
口口口口 |②---|
①②③口 |③---|
23
口口口口 |①---|
口口口口 |----|
口口②口 |----|
口口口① |②---|
24
口口口口 |①---|
②③口口 |----|
口①口口 |②---|
口口口口 |③---|
25
口口口口 |①---|
口口①口 |----|
口口口口 |----|
口口口口 |----|
26
口③②① |----|
口口口口 |①---|
口口口口 |②---|
口口口口 |③---|
27
①口口口 |①---|
口②口口 |----|
口口口口 |----|
口口口口 |②---|
28
口口口口 |①---|
口口①口 |----|
口口③② |②---|
口口口口 |③---|
29
口口口口 |①---|
口口口口 |----|
口①口口 |----|
口口口口 |----|
30
①②③口 |----|
口口口口 |①---|
口口口口 |②---|
口口口口 |③---|
31
口口口① |①---|
口口②口 |----|
口口口口 |----|
口口口口 |②---|
32
口口口口 |①---|
口①口口 |----|
口②③口 |②---|
口口口口 |③---|
33
口口口口 |①---|
口口口口 |----|
口口口① |----|
口口口口 |----|
34
口口口口 |----|
口③②① |①---|
口口口口 |②---|
口口口口 |③---|
35
口口口口 |①---|
①口口口 |----|
口②口口 |----|
口口口口 |②---|
36
口口口口 |①---|
口口口口 |----|
口口①口 |②---|
口口③② |③---|
37
口口口口 |①---|
口口口口 |----|
口口口口 |----|
口①口口 |----|
38
口口口口 |①---|
口口口口 |----|
口口口口 |②---|
口②①口 |----|
39
口口口口 |①---|
口口口口 |②---|
口口口口 |③---|
①②③④ |④---|
40
口口口口 |①---|
口口口口 |----|
口②①口 |②---|
口口口口 |----|
41
口口口口 |①---|
口口口口 |②---|
①②③④ |③---|
口口口口 |④---|
42
口口口口 |①---|
口②①口 |----|
口口口口 |②---|
口口口口 |----|
43
口口口口 |①---|
①②③④ |②---|
口口口口 |③---|
口口口口 |④---|
44
口②①口 |①---|
口口口口 |----|
口口口口 |②---|
口口口口 |----|
45
①②③④ |①---|
口口口口 |②---|
口口口口 |③---|
口口口口 |④---|
46
口口口口 |①---|
口②①口 |----|
口口口口 |②---|
口口口口 |----|
47
口口口口 |①---|
口口口口 |----|
口①②口 |②---|
口口口口 |----|
48
口口口② |①---|
口口①口 |----|
口口口口 |②---|
口口口口 |----|
49
口②①口 |①---|
口口口口 |----|
口口口口 |②---|
口口口口 |----|
50
①口口口 |①---|
口口口口 |----|
口口口口 |②---|
②口口口 |----|
51
口口口口 |①---|
口口口口 |----|
口口口口 |②---|
口①②口 |----|
52
口口口口 |①---|
口口口口 |----|
口口口口 |----|
口口口① |----|
53
口口口口 |①---|
口口③口 |--②-|
口②口口 |----|
口口①口 |③---|
54
口口口口 |①---|
口口口口 |②---|
口④③口 |③---|
口②①口 |④---|
55
口④③口 |①---|
口②①口 |②---|
口口口口 |③---|
口口口口 |④---|
56
①口口口 |①---|
②口口口 |②---|
③口口口 |③---|
④口口口 |④---|
57
口口口口 |①---|
口口口口 |②---|
口口口④ |③---|
口①②③ |④---|
58
口④③② |①---|
口口口① |②---|
口口口口 |③---|
口口口口 |④---|
59
口口口口 |①---|
口①④口 |②---|
口②③口 |③---|
口口口口 |④---|
60
口口口口 |①---|
②口口② |----|
①口口① |②---|
口口口口 |----|
61
①口口① |①---|
②口口口 |----|
口口口口 |②---|
口口口口 |----|
62
口口口口 |①---|
口①②口 |----|
口口口口 |②---|
口口口口 |----|
63
口口口口 |①---|
口口口① |----|
口口口② |②---|
口口口口 |----|
64
口口口口 |①---|
口口口口 |----|
口②①口 |②---|
口口口口 |----|
65
口口口口 |①---|
口②②口 |----|
①口口口 |②---|
口口口口 |----|
66
①口口口 |----|
②口口口 |①---|
③口口口 |②---|
口口口口 |③---|
67
口口口口 |①---|
口口口口 |②---|
口口口口 |③---|
①②③④ |④---|
68
口口④③ |①---|
口口口② |②---|
口口口① |③---|
口口口口 |④---|
69
口①口口 |①---|
口②③口 |②---|
口④④口 |③---|
口口口口 |④---|
70
①口②③ |①---|
口口口口 |----|
口口口口 |②---|
口口口口 |③---|
71
口口口口 |①---|
③②口① |----|
口口口口 |②---|
口口口口 |③---|
72
口口口口 |①---|
口口口口 |----|
①口②③ |②---|
口口口口 |③---|
73
口口口口 |①---|
口口口口 |----|
口口口口 |②---|
③②口① |③---|
74
口口口口 |①---|
口口口口 |----|
①②口口 |②---|
口口口口 |----|
75
口口口口 |①---|
口口③② |----|
口口①口 |②---|
口口口口 |③---|
76
口口口口 |①---|
口①口口 |----|
口②②口 |----|
口口口口 |②---|
77
口②②口 |----|
口①①口 |----|
口口口口 |①---|
口口口口 |②---|


不确定度: 0

最終更新:2012年11月27日 00:56