シャナナ☆
MINMI

ADVANCED

Level: 5
BPM: 156
Notes: 361

1
口①口口 |----|
口②口口 |----|
口口口口 |①---|
口口口口 |②---|
2
口口口口 |①---|
口口口口 |----|
口①口口 |----|
口口口口 |----|
3
口口①口 |----|
口口②口 |①---|
口口③口 |②---|
口口口口 |③---|
4
口口口口 |①---|
口口口口 |----|
口口口口 |----|
口口①口 |----|
5
口口口口 |----|
①②③④ |----|
口口口口 |①-②-|
口口口口 |③-④-|
6
口口口口 |----|
口口口口 |①-②-|
①②口口 |----|
③④口口 |③-④-|
7
口口口口 |----|
口口口口 |①-②-|
口④口口 |----|
口③①② |③-④-|
8
口口②口 |----|
口口①口 |①-②-|
口口口口 |----|
口口口口 |----|
9
口口口口 |----|
①口口口 |----|
口口口口 |①---|
口口口口 |----|
10
口口口口 |①---|
口①口口 |----|
口口口口 |----|
口口口口 |----|
11
口口口口 |----|
口口口口 |--①-|
①②③④ |②---|
口口口口 |③-④-|
12
口口口口 |----|
口②①口 |①---|
口口口口 |②---|
口口口口 |----|
13
口①①口 |①---|
口口口口 |----|
口③口口 |----|
口②口口 |②-③-|
14
口口口口 |①---|
口①⑤④ |②-③-|
口口②③ |--④-|
口口口口 |--⑤-|
15
口口口口 |--①-|
②①口口 |--②-|
口口口口
口口口口

口③③口
口④④口
口口口口 |--③-|
口口口口 |--④-|
16
口口口口 |--①-|
口口口口 |----|
口①①口 |----|
口口口口 |----|
17
口口口口 |----|
口口口口 |----|
口口口口 |----|
①口口① |①---|
18
口口口口 |①---|
②口口② |----|
①口口① |②---|
口口口口 |----|
19
①②②① |①---|
口③③口 |----|
口④④口 |②---|
口口口口 |③-④-|
20
口口口口 |①---|
口口口口 |----|
口口口口 |----|
口①①口 |----|
21
口口口口 |----|
口口口口 |----|
口①②口 |①---|
口口口口 |②---|
22
口②口口 |①---|
口口③口 |②---|
口④口口 |③---|
口①①口 |④---|
23
口口口口 |①---|
②口口② |----|
口②②口 |----|
口口①口 |②---|
24
①口口① |①---|
口①①③ |----|
②口③口 |②---|
口②口口 |③---|
25
①口口口 |①---|
口①口口 |----|
口口口口 |----|
口口口口 |----|
26
口①口口 |----|
口口②口 |①---|
口③口口 |②---|
口口口口 |③---|
27
口口口口 |①---|
②口口② |----|
口②②口 |----|
口口①口 |②---|
28
①口口① |①---|
口①①③ |----|
②口③口 |②---|
口②口口 |③---|
29
①口口口 |①---|
口①口口 |----|
口口口口 |----|
口口口口 |----|
30
口口口口 |----|
口③口口 |①---|
口口②口 |②---|
口①口口 |③---|
31
口口①口 |①---|
口口口口 |----|
②口口② |----|
口口口口 |②---|
32
①口口① |①---|
口口口口 |----|
口③③口 |②---|
②口口② |③---|
33
口口口口 |①---|
①口口① |----|
口口口口 |----|
口口口口 |----|
34
口口口口 |----|
口③口口 |①---|
口口②口 |②---|
口①口口 |③---|
35
口口①口 |①---|
口口口口 |----|
②口口② |----|
口口口口 |②---|
36
①口口① |①---|
口口口口 |----|
口③③口 |②---|
②口口② |③---|
37
口口口口 |①---|
①口口① |----|
口口口口 |----|
口口口口 |----|
38
口口口口 |①---②-|
口口口口 |--③---|
①②③④ |④---|
口口口口 |----|
39
口口口④ |①---|
口③口口 |②---|
口口口② |③---|
口①口口 |④---|
40
口口口口 |①---②-|
口口口口 |--③---|
④③②① |④---|
口口口口 |----|
41
④口口口 |①---|
口口③口 |②---|
②口口口 |③---|
口口①口 |④---|
42
口口口口 |①---②-|
口口口口 |--③---|
①②③④ |④---|
口口口口 |----|
43
口口口④ |①---|
口③口口 |②---|
口口口② |③---|
口①口口 |④---|
44
口口口口 |①---②-|
④口口口 |--③-|
③口②① |--④-|
口口口口 |----|
45
口口口口 |①---|
口③④口 |②---|
口②口口 |③---|
口①口口 |④---|
46
口口①口 |①---|
口⑥④口 |--②-|
口⑤③口 |③-④-|
口口②口 |⑤-⑥-|
47
口①口口 |①---|
⑤⑥⑦口 |②-③-|
口④③② |④-⑤-|
口口口口 |⑥-⑦-|
48
⑤⑥口口 |①---|
④口口① |--②-|
③口口口 |③-④-|
②口口口 |⑤-⑥-|
49
口口口① |--①-|
口口口② |②-③-|
口口口③ |④-⑤-|
⑦⑥⑤④ |⑥-⑦-|
50
口口口口 |①---|
口口⑥④ |--②-|
①口⑤③ |③-④-|
口口口② |⑤-⑥-|
51
⑥口①口 |①-②-|
⑤口口口 |③-④-|
④口⑧口 |⑤-⑥-|
③②⑦口 |⑦-⑧-|
52
③口②口 |①---|
口口①口 |②---|
口口口口 |----|
口口口口 |--③-|
53
口①口口 |①---|
口口③② |②-③-|
④⑤口口 |--④-|
口口口口 |⑤---|
54
口口口口 |--①-|
口口⑤④ |--②-|
口③③口 |--③-|
②口口① |④-⑤-|
55
③④⑤⑥ |①-②-|
②①口口 |--③-|
口口口口 |④-⑤-|
口口口口 |⑥---|
56
口口口口 |--①-|
口口口口 |--②-|
④口口③ |--③-|
②口口① |--④-|
57
口口口口 |--①-|
②口口① |--②-|
口③④口 |--③-|
口口口口 |④---|
58
口口口口 |--①-|
口口口口 |--②-|
④口口③ |--③-|
②口口① |--④-|
59
口口口口 |--①-|
②口口① |--②-|
口③④口 |--③-|
口口口口 |④---|
60
①②③④ |①-②-|
⑧⑦⑥⑤ |③-④-|
口口口口 |⑤-⑥-|
口口口口 |⑦-⑧-|
61
口口口口 |①---|
⑤④③② |--②-|
①①①① |--③-|
口口口口 |④-⑤-|
62
口口口口 |①---|
口②②口 |----|
口①①口 |②---|
口口口口 |----|
63
口①①口 |①---|
口口口口 |--②-|
②口口口 |③-④-|
③④⑤⑥ |⑤-⑥-|
64
口口口口 |①---|
口②②口 |----|
口①①口 |②---|
口口口口 |----|
65
口①①口 |①---|
⑥⑤④③ |--②-|
口口口② |③-④-|
口口口口 |⑤-⑥-|
66
口口口口 |--①-|
口口口口 |--②-|
口口口⑤ |③-④-|
①②③④ |--⑤-|
67
口口口口 |--①-|
口口③① |--②-|
口④②口 |--③-|
口口口口 |--④-|
68
口④口口 |--①-|
③①口口 |--②-|
②口口口 |--③-|
口口口口 |--④-|
69
口口①② |--①-|
口口口口 |--②-|
③③④④ |--③-|
口口口口 |④---|
70
口②②口 |①---|
口④④口 |②---|
口③③口 |③---|
①①①① |④---|
71
口②②口 |①---|
口口口口 |②---|
口口口口
①①①①

口口口口
口③③口
口口口口 |③---|
口④④口 |④---|
72
口②②口 |①---|
③③③③ |②---|
①①①① |③---|
口④④口 |④---|
73
口口口口 |①---|
②③③② |②---|
①①①① |③---|
④口口④ |④---|
74
口口口口 |①---②-|
④⑤⑥口 |--③---|
口③②① |④---⑤-|
口口口口 |--⑥---|
75
口⑥⑤④ |①---②-|
口口口口 |--③---|
口口口口 |④---⑤-|
①②③口 |--⑥---|
76
口口口口 |①---|
口口口口 |----|
口①①口
口口口口

口口口口
口口口口
口②②口 |----|
口③③口 |②-③-|
77
口③③口 |----|
口②②口 |----|
口①①口 |①-②-|
口口口口 |③---|


不确定度: 0

最終更新:2012年11月27日 00:56