シャナナ☆
MINMI

EXTREME

Level: 6
BPM: 156
Notes: 478

1
口①口口 |----|
口②口口 |----|
口口口口 |①---|
口口口口 |②---|
2
口口口口 |①---|
口口口口 |----|
口①口口 |----|
口口口口 |----|
3
口口①口 |----|
口口②口 |①---|
口口③口 |②---|
口口口口 |③---|
4
口口口口 |①---|
口口口口 |----|
口口口口 |----|
口口①口 |----|
5
口口口口 |----|
①②③④ |----|
口口口口 |①-②-|
口口口口 |③-④-|
6
口口口口 |----|
口口口口 |①-②-|
①②口口 |----|
③④口口 |③-④-|
7
口口口口 |----|
口口口口 |①-②-|
口④口口 |----|
口③①② |③-④-|
8
口口②口 |----|
口口①口 |①-②-|
口口口口 |----|
口口口口 |----|
9
口口口口 |----|
①口口口 |----|
口口口口 |①---|
口口口口 |----|
10
口口口口 |①---|
口①口口 |----|
口口口口 |----|
口口口口 |----|
11
口口口口 |----|
口口口口 |--①-|
①②口口 |②---|
口口③④ |③-④-|
12
口口口口 |----|
口口②② |①---|
口口①① |②---|
口口口口 |----|
13
口③①① |①---|
口②口口 |----|
口口口口 |----|
口口口口 |②-③-|
14
①口③② |①-②③|
⑤口④口 |④-⑤-|
⑧⑨⑦⑥ |⑥⑦⑧⑨|
口⑩口⑪ |⑩-⑪-|
15
①口③② |①-②③|
⑤口④口 |④-⑤-|
⑧⑨⑦⑥ |⑥⑦⑧⑨|
口⑩口⑪ |⑩-⑪-|
16
①口③② |①-②③|
⑤口④口 |④-⑤-|
⑧⑨⑦⑥ |⑥⑦⑧⑨|
口⑩口⑪ |⑩-⑪-|
17
①口③② |①-②③|
⑤口④口 |④-⑤-|
⑧⑨⑦⑥ |⑥⑦⑧⑨|
口⑩口⑪ |⑩-⑪-|
18
口口口口 |①---|
②①①② |----|
口口口口 |②---|
口口口口 |----|
19
①②②① |①---|
口③③口 |----|
口④④口 |②---|
口口口口 |③-④-|
20
口口口口 |①---|
口口口口 |----|
口口口口 |----|
口①①口 |----|
21
口口①口 |----|
口②口口 |----|
口口③口 |①-②-|
口口口口 |③---|
22
口②口③ |①---|
⑤口④口 |②-③-|
口⑥口⑦ |④-⑤-|
口①①口 |⑥-⑦-|
23
口口口口 |①---|
②口口② |----|
口②②口 |----|
口口①口 |②---|
24
①口口① |①---|
口①①③ |----|
②口③口 |②---|
口②口口 |③---|
25
①口口口 |①---|
口①口口 |----|
口口口口 |----|
口口口口 |----|
26
口①口② |----|
④口③口 |①-②-|
口⑤口⑥ |③-④-|
口口口口 |⑤-⑥-|
27
口口口口 |①---|
②口口② |----|
口②②口 |----|
口口①口 |②---|
28
①口口① |①---|
口①①③ |----|
②口③口 |②---|
口②口口 |③---|
29
①口口口 |①---|
口①口口 |----|
口口口口 |----|
口口口口 |----|
30
口口口口 |----|
口⑤⑥口 |①-②-|
口④③口 |③-④-|
口①②口 |⑤-⑥-|
31
口口①口 |①---|
口口口口 |----|
②口口② |----|
口口口口 |②---|
32
①口口① |①---|
口口口口 |----|
口③③口 |②---|
②口口② |③---|
33
口口口口 |①---|
①口口① |----|
口口口口 |----|
口口口口 |----|
34
口口口口 |----|
口⑤⑥口 |①-②-|
口④③口 |③-④-|
口①②口 |⑤-⑥-|
35
口口①口 |①---|
口口口口 |----|
②口口② |----|
口口口口 |②---|
36
①口口① |①---|
口口口口 |----|
口③③口 |②---|
②口口② |③---|
37
口口口口 |①---|
①口口① |----|
口口口口 |----|
口口口口 |----|
38
口口口口 |①---②-|
口口口口 |--③---|
①②③④ |④---|
口口口口 |----|
39
③口口④ |①---|
口③④口 |②---|
①口口② |③---|
口①②口 |④---|
40
口口口口 |①---②-|
口口口口 |--③---|
④③②① |④---|
口口口口 |----|
41
④口口③ |①---|
口④③口 |②---|
②口口① |③---|
口②①口 |④---|
42
口口口口 |①---②-|
口口口口 |--③---|
①②③④ |④---|
口口口口 |----|
43
③口口④ |①---|
口③④口 |②---|
①口口② |③---|
口①②口 |④---|
44
口口口口 |①---②-|
④④口口 |--③-|
③③②① |--④-|
口口口口 |----|
45
⑤口口③ |①---|
口⑥④口 |②---|
②口口① |③-④-|
口②①口 |⑤-⑥-|
46
口②①口 |①-②-|
口⑦⑤口 |--③-|
口⑥④口 |④-⑤-|
口口③口 |⑥-⑦-|
47
口①口口 |①---|
⑤⑥⑦口 |②-③-|
口④③② |④-⑤-|
口口口口 |⑥-⑦-|
48
口口口口 |①---|
口口口① |--②-|
⑤口口③ |③-④-|
④⑥⑥② |⑤-⑥-|
49
口⑦⑥⑤ |--①-|
②③④口 |②-③-|
口①①口 |④-⑤-|
口口口口 |⑥-⑦-|
50
①口口口 |①---|
口口⑥④ |--②-|
口口⑤③ |③-④-|
口口口② |⑤-⑥-|
51
⑤口①⑥ |①-②-|
④口口口 |③-④-|
③⑧⑧口 |⑤-⑥-|
②⑦⑦口 |⑦-⑧-|
52
③②②口 |①---|
口①①口 |②---|
口口口口 |----|
口口口口 |--③-|
53
口①口口 |①---|
口口③② |②-③-|
④⑤口口 |--④-|
口口口口 |⑤---|
54
口口⑧口 |①-②-|
口⑥⑥⑦ |③-④-|
口⑤③口 |⑤-⑥-|
④①①② |⑦-⑧-|
55
⑥②口⑥ |①-②-|
①⑤⑤口 |--③-|
④③③④ |④-⑤-|
口口口口 |⑥---|
56
口口口口 |①-②-|
口口⑦口 |③-④-|
⑧⑤③⑥ |⑤-⑥-|
④①①② |⑦-⑧-|
57
口口③口 |①-②-|
④①口② |③-④-|
口口口口
口口口口

⑥⑤口⑥
口⑦⑦口
口口口口 |⑤-⑥-|
口口口口 |⑦---|
58
口口⑦⑧ |①-②-|
口口口⑥ |③-④-|
口⑤③口 |⑤-⑥-|
④①①② |⑦-⑧-|
59
②③口口 |①-②-|
④①①口 |③-④-|
口口口口
口口口口

口口口口
口⑦⑦口
口⑥⑥口 |⑤-⑥-|
口⑤⑤口 |⑦---|
60
①②③④ |①-②-|
⑧⑦⑥⑤ |③-④-|
口口口口 |⑤-⑥-|
口口口口 |⑦-⑧-|
61
口口口口 |①---|
⑤④③② |--②-|
①①①① |--③-|
口口口口 |④-⑤-|
62
口口口口 |①---|
口②②口 |----|
口①①口 |②---|
口口口口 |----|
63
口①①口 |①---|
口口口口 |--②-|
②口口口 |③-④-|
③④⑤⑥ |⑤-⑥-|
64
口口口口 |①---|
口②②口 |----|
口①①口 |②---|
口口口口 |----|
65
口①①口 |①---|
⑥⑤④③ |--②-|
口口口② |③-④-|
口口口口 |⑤-⑥-|
66
口口口口 |--①-|
口口口口 |--②-|
口口口⑤ |③-④-|
①②③④ |--⑤-|
67
口口口口 |--①-|
口口③① |--②-|
口④②口 |--③-|
口口口口 |--④-|
68
口④口口 |--①-|
③①口口 |--②-|
②口口口 |--③-|
口口口口 |--④-|
69
口口①② |--①-|
口口口口 |--②-|
③③④④ |--③-|
口口口口 |④---|
70
②③④口 |①-②-|
口⑥⑥口 |③-④-|
口⑤⑤口 |⑤---|
口①①口 |⑥---|
71
口④③② |①-②-|
口口口口 |③-④-|
口口口口
口①①口

口口口口
口⑤⑤口
口口口口 |⑤---|
口⑥⑥口 |⑥---|
72
④口口口 |①-②-|
③⑤⑤口 |③-④-|
②①①口 |⑤---|
口⑥⑥口 |⑥---|
73
口口口④ |①-②-|
口⑤⑤③ |③-④-|
口①①② |⑤---|
⑥口口⑥ |⑥---|
74
⑥口口⑥ |①---②-|
⑤③③⑤ |--③---|
④②②④ |④---⑤-|
口①①口 |--⑥---|
75
口⑥⑥口 |①---②-|
口⑤⑤口 |--③---|
④③③④ |④---⑤-|
①②②① |--⑥---|
76
①口口① |①---|
①口口① |----|
②②②② |----|
③③③③ |②-③-|
77
③③③③ |----|
②②②② |----|
①①①① |①-②-|
口口口口 |③---|


不确定度: 0

最終更新:2012年11月27日 00:55