Scatman (Ski-Ba-Bop-Ba-Dop-Bop)
Scatman John

BASIC

Level: 4
BPM: 136
Notes: 230

1
口口口口 |----|
口①口口 |①---|
口口②口 |②---|
口③口口 |③---|
2
口口口口 |①---|
口口①口 |----|
口②口口 |②---|
口口口口 |----|
3
口口口口 |①---|
口口口口 |----|
口口口② |②---|
口口①口 |----|
4
口②口口 |①---|
口口①口 |----|
口口口口 |②---|
口口口口 |----|
5
口口口口 |①---|
①口口口 |----|
口②口口 |②---|
口口口口 |----|
6
口口口口 |①---|
口口口口 |----|
口口口② |②---|
口口①① |----|
7
口②口口 |①---|
口口①口 |----|
口口口口 |②---|
口口口口 |----|
8
口口口口 |①---|
①口口口 |----|
口②口口 |②---|
口口口口 |----|
9
口口口口 |①---|
口口口口 |----|
口口口口 |②---|
口口①② |----|
10
口⑥⑥口 |①---|
口⑤④口 |②-③-|
③口口② |④-⑤--⑥|
口①①口 |----|
11
口口口口 |----|
口⑤④口 |①-②-|
口③②口 |③-④--⑤|
①口口① |----|
12
口⑥⑥口 |-①------|
口⑤④口 |②-③-|
③口口② |④⑤--|
口①①口 |⑥---|
13
口口口口 |----|
口⑤④口 |①-②-|
口③②口 |③④-⑤|
①口口① |----|
14
口⑥⑥口 |①---|
口⑤④口 |②-③-|
③口口② |④⑤--|
口①①口 |⑥---|
15
口口口口 |----|
口⑤④口 |①-②-|
口③②口 |③-④--⑤|
①口口① |----|
16
口⑥⑥口 |①---|
口⑤④口 |②-③-|
③口口② |④--⑤---⑥|
口①①口 |----|
17
口口口口 |----|
口⑤④口 |①-②-|
口③②口 |-③-④---⑤|
①口口① |----|
18
①②③④ |①---|
口口口口 |②---|
口口口口 |③---|
口口口口 |④---|
19
口口口口 |①---|
口口口① |②---|
口口口② |③---|
口口④③ |④---|
20
口口口口 |①---|
④口口口 |②---|
③口口口 |③---|
②①口口 |④---|
21
口①①口 |①---|
口口口口 |----|
口口口口 |----|
口口口口 |----|
22
①①口口 |①---|
②口口口 |②---|
③口口口 |③---|
④口口口 |④---|
23
口口口口 |①---|
口口口口 |②---|
口口口口 |③---|
口①②③ |----|
24
口口①① |①---|
口口口② |②---|
口口口③ |③---|
口口口④ |④---|
25
口口口口 |①---|
口口口口 |②---|
④口口口 |③---|
③②①口 |④---|
26
口口口口 |①---|
口①①口 |②---|
口②口口 |③---|
口④③口 |④---|
27
口口③口 |①---|
口②口口 |②---|
口口①口 |③---|
口口口口 |----|
28
口口口口 |①---|
口④③② |②---|
口①①口 |③---|
口口口口 |④---|
29
②③④口 |①---|
①口口口 |②---|
口口口口 |③---|
口口口口 |④---|
30
口口口口 |①---|
口①①口 |②---|
口②②口 |----|
口口口口 |----|
31
口口口口 |----|
口口口口 |----|
口口口口 |----|
口口口口 |----|
32
口口口口 |①---|
口①②口 |②---|
口①②口 |----|
口口口口 |----|
33
口口口口 |①---|
口①①口 |②---|
口②②口 |----|
口口口口 |----|
34
①①口口 |①---|
②口口口 |②---|
③口口口 |③---|
④口口口 |④---|
35
口口口口 |①---|
口口口口 |②---|
口口口口 |③---|
口①②③ |----|
36
口口①① |①---|
口口口② |②---|
口口口③ |③---|
口口口④ |④---|
37
口口口口 |①---|
口口口口 |②---|
④口口口 |③---|
③②①口 |④---|
38
口口口口 |①---|
口①①口 |②---|
口②口口 |③---|
口④③口 |④---|
39
口口③口 |①---|
口②口口 |②---|
口口①口 |③---|
口口口口 |----|
40
口口口口 |①---|
口④③② |②---|
口①①口 |③---|
口口口口 |④---|
41
②③④口 |①---|
①口口口 |②---|
口口口口 |③---|
口口口口 |④---|
42
口口口口 |①---|
口①①口 |②---|
口②②口 |----|
口口口口 |----|
43
口⑥⑥口 |①---|
口⑤④口 |②-③-|
③口口② |④-⑤--⑥|
口①①口 |----|
44
口口口口 |----|
口⑤④口 |①-②-|
口③②口 |③④-⑤|
①口口① |----|
45
口⑥⑥口 |①---|
口⑤④口 |②-③-|
③口口② |④⑤--|
口①①口 |⑥---|
46
口口口口 |----|
口⑤④口 |①-②-|
口③②口 |③④-⑤|
①口口① |----|
47
口⑥⑥口 |①---|
口⑤④口 |②-③-|
③口口② |④⑤--|
口①①口 |⑥---|
48
口口口口 |----|
口⑤④口 |①-②-|
口③②口 |③-④--⑤|
①口口① |----|
49
口⑥⑥口 |①---|
口⑤④口 |②-③-|
③口口② |④-⑤----⑥|
口①①口 |----|
50
口口口口 |----|
口⑤④口 |①-②-|
口③②口 |③-④--⑤|
①口口① |----|


不确定度: 0

最終更新:2012年11月27日 00:53