Scatman (Ski-Ba-Bop-Ba-Dop-Bop)
Scatman John

ADVANCED

Level: 5
BPM: 136
Notes: 275

1
①口口口 |----|
①②口口 |①---|
口口②③ |②---|
口口口③ |③---|
2
①口口口 |①---|
②口口口 |②---|
③口口口 |③---|
口④④口 |④---|
3
口④④口 |----|
口口口③ |--①-|
口口口② |②-③-|
口口口① |④---|
4
①口口口 |①---|
②口口口 |②---|
③口口口 |③---|
口④④口 |④---|
5
口④④口 |----|
口口口③ |--①-|
口口口② |②-③-|
口口口① |④---|
6
①口口① |①---|
口②②口 |②---|
口③③口 |③---|
口④④口 |④---|
7
口①①口 |----|
②口口② |--①-|
口③③口 |②-③-|
④口口④ |④---|
8
①口口口 |①---|
②口口口 |②---|
③口口口 |③---|
口④④口 |④---|
9
口④④口 |----|
口口口③ |--①-|
口口口② |②-③-|
口口口① |④---|
10
口⑥⑥口 |①---|
口⑤④口 |②-③-|
③口口② |④-⑤--⑥|
口①①口 |----|
11
口口口口 |----|
口⑤④口 |①-②-|
口③②口 |③-④--⑤|
①口口① |----|
12
口⑥⑥口 |-①------|
口⑤④口 |②-③-|
口③②口 |④⑤--|
①口口① |⑥---|
13
口口口口 |----|
口⑤④口 |①-②-|
口③②口 |③④-⑤|
口①①口 |----|
14
口⑥⑥口 |①---|
口⑤④口 |②-③-|
③口口② |④⑤--|
口①①口 |⑥---|
15
口口口口 |----|
口⑤④口 |①-②-|
口③②口 |③-④--⑤|
①口口① |----|
16
口⑥⑥口 |①---|
口⑤④口 |②-③-|
口③②口 |④--⑤---⑥|
①口口① |----|
17
口口口口 |----|
口⑤④口 |①-②-|
口③②口 |-③-④---⑤|
口①①口 |----|
18
③④口口 |①---|
②口口口 |②---|
①口口口 |③---|
口口口口 |④---|
19
口⑧①口 |①-②-|
⑦口口② |③-④-|
⑥口口③ |⑤-⑥-|
口⑤④口 |⑦-⑧-|
20
口口①口 |①-②-|
⑦口口② |③-④-|
⑥口口③ |⑤-⑥-|
口⑤④口 |⑦---|
21
口口口口 |①---|
口①①口 |----|
口①①口 |----|
口口口口 |----|
22
口口口口 |①---|
口①①口 |②---|
口口②口 |③---|
口③④口 |④---|
23
口③③口 |①---|
口口②口 |②---|
口①口口 |③---|
口口口口 |----|
24
①口口口 |①---|
口口①口 |②---|
口②口口 |③---|
口③④口 |④---|
25
口口口④ |①---|
口口口③ |②---|
口口口② |③---|
口口口① |④---|
26
口口口口 |①---|
口①①口 |②---|
口口②口 |③---|
口③④口 |④---|
27
口③③口 |①---|
口口②口 |②---|
口①口口 |③---|
口口口口 |----|
28
口口口① |①---|
口①②口 |②---|
口口③口 |③---|
口口④口 |④---|
29
口口口口 |①---|
④口口口 |②---|
③口口口 |③---|
②①口口 |④---|
30
口①①口 |①---|
口②②口 |②---|
口口口口 |----|
口口口口 |----|
31
口口口口 |----|
口口口口 |----|
口口口口 |----|
口口口口 |----|
32
口口口口 |①---|
口口口口 |②---|
口①①口 |----|
口②②口 |----|
33
口口口口 |①---|
②口口② |②---|
①口口① |----|
口口口口 |----|
34
口口口口 |①---|
口①①口 |②---|
口口②口 |③---|
口③④口 |④---|
35
口③③口 |①---|
口口②口 |②---|
口①口口 |③---|
口口口口 |----|
36
①口口口 |①---|
口口①口 |②---|
口②口口 |③---|
口③④口 |④---|
37
口口口④ |①---|
口口口③ |②---|
口口口② |③---|
口口口① |④---|
38
口口口口 |①---|
口①①口 |②---|
口口②口 |③---|
口③④口 |④---|
39
口③③口 |①---|
口口②口 |②---|
口①口口 |③---|
口口口口 |----|
40
口口口① |①---|
口①②口 |②---|
口口③口 |③---|
口口④口 |④---|
41
口口口口 |①---|
④口口口 |②---|
③口口口 |③---|
②①口口 |④---|
42
口①①口 |①---|
口②②口 |②---|
口口口口 |----|
口口口口 |----|
43
口⑥⑥口 |①---|
口⑤④口 |②-③-|
③口口② |④-⑤--⑥|
口①①口 |----|
44
口口口口 |----|
口⑤④口 |①-②-|
口③②口 |③④-⑤|
①口口① |----|
45
口⑥⑥口 |①---|
口⑤④口 |②-③-|
③口口② |④⑤--|
口①①口 |⑥---|
46
口口口口 |----|
口⑤④口 |①-②-|
口③②口 |③④-⑤|
①口口① |----|
47
口⑥⑥口 |①---|
口⑤④口 |②-③-|
口③②口 |④⑤--|
①口口① |⑥---|
48
口口口口 |----|
口⑤④口 |①-②-|
口③②口 |③-④--⑤|
口①①口 |----|
49
口⑥⑥口 |①---|
口⑤④口 |②-③-|
③口口② |④-⑤----⑥|
口①①口 |----|
50
口口口口 |----|
口⑤④口 |①-②-|
口③②口 |③-④--⑤|
①口口① |----|


不确定度: 0

最終更新:2012年11月27日 00:52