Scatman (Ski-Ba-Bop-Ba-Dop-Bop)
Scatman John

EXTREME

Level: 7
BPM: 136
Notes: 368

1
①口②口 |----|
①②口口 |①---|
①口②③ |②---|
①②口③ |③---|
2
①②③④ |①-②-|
口⑦口⑤ |③-④-|
口⑦口⑥ |⑤-⑥-|
口口口口 |⑦---|
3
口口口口 |----|
③口④口 |--①-|
②口④口 |②---③--④|
①口口口 |----|
4
口口口① |①-②-|
口⑦⑦② |③-④-|
口口口③ |⑤--⑥-⑦|
口⑥⑤④ |----|
5
①②③口 |----|
口口口口 |--①-|
口④④口 |②-③-|
口口口口 |④---|
6
③④⑤⑥ |①-②-|
②口口口 |③-④-|
①⑦⑦口 |⑤-⑥-|
口口口口 |⑦---|
7
口口口口 |----|
口④④口 |--①-|
口口口口 |②-③-|
口③②① |④---|
8
①②③④ |①-②-|
口⑦口⑤ |③-④-|
口⑦口⑥ |⑤--⑥-⑦|
口口口口 |----|
9
口①口口 |----|
口口②口 |--①-|
口③口口 |②③--|
口④④口 |④---|
10
①口口② |①---|
口③④口 |②-③-|
口⑤⑥口 |④-⑤--⑥|
②口口① |----|
11
①口口② |----|
口⑤口口 |①-②-|
口④③口 |③-④--⑤|
②口口① |----|
12
①口口② |-①------|
口③④口 |②-③-|
口⑤⑥口 |④⑤------|
②口口① |⑥---|
13
①⑦⑥② |----|
口口⑤口 |①-②-|
口④③口 |③④-⑤|
②口口① |--⑥-⑦-|
14
①口口口 |①---|
②⑥⑥口 |②-③-|
③⑤口口 |④⑤--|
④口口口 |⑥---|
15
①口口② |----|
口③④口 |①-②-|
口⑤口口 |③-④--⑤|
②口口① |----|
16
①口口② |①---|
口⑥⑤口 |②-③-|
口④③口 |④--⑤---⑥|
②口口① |----|
17
①口口② |----|
口③④口 |①-②-|
口⑤口口 |③-④--⑤|
②口口① |----|
18
口①②口 |-①②③|
⑤③④⑦ |④-⑤⑥|
⑧口口⑥ |⑦-⑧-|
⑨⑩口口 |⑨-⑩-|
19
⑧⑦⑥⑤ |①②③④|
口口口④ |⑤⑥⑦⑧|
口口口③
口口①②

口口口口
⑨口口口
⑩口口⑮ |⑨⑩⑪-|
⑪⑫⑬⑭ |⑫⑬⑭⑮|
20
⑤④③② |①②③④|
⑥口口① |⑤⑥⑦⑧|
⑦口口口 |⑨⑩⑪-|
⑧⑨⑩⑪ |----|
21
口口口口 |①---|
口①①口 |----|
口①①口 |----|
口口口口 |----|
22
口①⑧口 |①-②-|
口⑦②口 |③-④-|
口③⑥口 |⑤-⑥-|
口⑤④口 |⑦-⑧-|
23
②①口口 |①-②-|
③口口口 |③-④-|
④口口口
口口口口

口⑥口口
口口口⑤
口口口⑤ |⑤---|
口口口口 |--⑥-|
24
口口⑦⑧ |①-②-|
口⑥①口 |③-④-|
口②⑤口 |⑤-⑥-|
口④③口 |⑦-⑧-|
25
口⑦⑦口 |①-②-|
口口口① |③-④-|
口口口② |⑤-⑥-|
⑥⑤④③ |⑦---|
26
⑤⑦⑥④ |①-②-|
③口⑧② |③-④-|
口①①口 |⑤-⑥-|
口口口口 |⑦-⑧-|
27
口口口口 |①-②-|
口①口口 |③-④-|
口③②口 |⑤---|
口⑤④口 |----|
28
口口⑤④ |①-②-|
口口⑥③ |③-④-|
口口⑦② |⑤-⑥-|
口口⑧① |⑦-⑧-|
29
⑤④口口 |①-②-|
⑥③口口 |③-④-|
⑦②口口 |⑤-⑥-|
口①口口 |⑦---|
30
口口口口 |①---|
口①①口 |②---|
口口口口 |----|
口②②口 |----|
31
口口口口 |----|
口口口口 |----|
口口口口 |----|
口口口口 |----|
32
①①①① |①---|
②②②② |②---|
口口口口 |----|
口口口口 |----|
33
口口口口 |①---|
口口口口 |②---|
②②②② |----|
①①①① |----|
34
口①⑧口 |①-②-|
口⑦②口 |③-④-|
口③⑥口 |⑤-⑥-|
口⑤④口 |⑦-⑧-|
35
②①口口 |①-②-|
③口口口 |③-④-|
④口口口
口口口口

口⑥口口
口口口⑤
口口口⑤ |⑤---|
口口口口 |--⑥-|
36
口口⑦⑧ |①-②-|
口⑥①口 |③-④-|
口②⑤口 |⑤-⑥-|
口④③口 |⑦-⑧-|
37
口⑦⑦口 |①-②-|
口口口① |③-④-|
口口口② |⑤-⑥-|
⑥⑤④③ |⑦---|
38
⑤⑦⑥④ |①-②-|
③口⑧② |③-④-|
口①①口 |⑤-⑥-|
口口口口 |⑦-⑧-|
39
口口口口 |①-②-|
口①口口 |③-④-|
口③②口 |⑤---|
口⑤④口 |----|
40
口口⑤④ |①-②-|
口口⑥③ |③-④-|
口口⑦② |⑤-⑥-|
口口⑧① |⑦-⑧-|
41
⑤④口口 |①-②-|
⑥③口口 |③-④-|
⑦②口口 |⑤-⑥-|
口①口口 |⑦---|
42
口②②口 |①---|
口口口口 |②---|
口①①口 |----|
口口口口 |----|
43
①口口② |①---|
口③④口 |②-③-|
口⑤⑥口 |④-⑤--⑥|
②口口① |----|
44
①口口② |----|
口⑤口口 |①-②-|
口④③口 |③④-⑤|
②口口① |----|
45
①口口② |①---|
口③④口 |②-③-|
口⑤⑥口 |④⑤--|
②口口① |⑥---|
46
①⑦⑥② |----|
口口⑤口 |①-②-|
口④③口 |③④-⑤|
②口口① |--⑥-⑦-|
47
①口口口 |①---|
②⑥⑥口 |②-③-|
③⑤口口 |④⑤--|
④口口口 |⑥---|
48
①口口② |----|
口③④口 |①-②-|
口⑤口口 |③-④--⑤|
②口口① |----|
49
①口口② |①---|
口⑥⑤口 |②-③-|
口④③口 |④-⑤----⑥|
②口口① |----|
50
①口口② |----|
口口⑤口 |①-②-|
口④③口 |③-④--⑤|
②口口① |----|


不确定度: 0

最終更新:2012年11月27日 00:52