My Love
川嶋あい

BASIC

Level: 2
BPM: 140
Notes: 176

1
口口口口 |----|
口口口口 |----|
口口口口 |----|
口口口口 |----|
2
口口口口 |①---|
口①①口 |----|
口口口口 |----|
口口口口 |----|
3
口口口口 |①---|
口口口口 |----|
口①①口 |----|
口口口口 |----|
4
口口口口 |①---|
口①①口 |----|
口口口口 |----|
口口口口 |----|
5
口口口口 |①---|
口口口口 |----|
口①①口 |----|
口口口口 |----|
6
口④④口 |①---|
口③③口 |②---|
口②②口 |③---|
口①①口 |④---|
7
口口口口 |----|
口口口口 |----|
口②①口 |----|
口口口口 |①-②-|
8
口口口口 |----|
口口口口 |----|
口口口口 |----|
口口口口 |----|
9
口口口口 |----|
口①①口 |----|
口②②口 |--①-|
口口口口 |--②-|
10
口口口口 |----|
口口口口 |----|
口口口口 |----|
口口口口 |----|
11
口口④口 |①---|
口口③口 |②---|
口口②口 |③---|
口口①口 |④---|
12
口④口口 |①---|
口③口口 |②---|
口②口口 |③---|
口①口口 |④---|
13
口口口④ |①---|
口口口③ |②---|
口口口② |③---|
口口口① |④---|
14
④口口口 |①---|
③口口口 |②---|
②口口口 |③---|
①口口口 |④---|
15
口口口口 |①---|
口①①口 |----|
口②②口 |----|
口口口口 |--②-|
16
口口口口 |----|
口口口口 |----|
口口口口 |----|
口口口口 |----|
17
口口①口 |①---|
口口②口 |②---|
口口③口 |③---|
口口④口 |④---|
18
口口口口 |----|
口口口口 |----|
口口口口 |----|
口口口口 |----|
19
口①口口 |①---|
口②口口 |②---|
口③口口 |③---|
口④口口 |④---|
20
口口口口 |----|
口口口口 |----|
口口口口 |----|
口口口口 |----|
21
口口口口 |①---|
②口口口 |----|
口口口① |②---|
口口口口 |----|
22
口口口口 |①---|
口口口① |----|
②口口口 |②---|
口口口口 |----|
23
④口口① |①---|
③口口② |②---|
②口口③ |③---|
①口口④ |④---|
24
口口口口 |①---|
口①口口 |----|
口口①口 |----|
口口口口 |----|
25
口④④口 |①---|
口③③口 |②---|
口②②口 |③---|
口①①口 |④---|
26
口口口口 |----|
口口口口 |----|
口口口口 |----|
口口口口 |----|
27
口口口① |①---|
②口口口 |②---|
口口口③ |③---|
④口口口 |④---|
28
口口口口 |----|
口口口口 |----|
口口口口 |----|
口口口口 |----|
29
口口口口 |①---|
口①②口 |----|
口口口口 |②---|
口口口口 |----|
30
口口口口 |①---|
口口口口 |----|
口②①口 |②---|
口口口口 |----|
31
④口口① |①---|
③口口② |②---|
②口口③ |③---|
①口口④ |④---|
32
口口口口 |①---|
口①口口 |----|
口口①口 |----|
口口口口 |----|
33
口口口① |①---|
口口口② |②---|
口口口③ |③---|
口口口④ |④---|
34
口口口口 |①---|
口口口口 |②---|
④口口口 |③---|
③②①口 |④---|
35
②③④口 |①---|
①口口口 |②---|
口口口口 |③---|
口口口口 |④---|
36
口口口① |①---|
口口口② |②---|
口口口③ |③---|
口口口④ |④---|
37
口口口口 |①---|
口口口口 |②---|
④口口口 |③---|
③②①口 |④---|
38
②口口口 |①---|
①口口口 |②---|
口口口口 |----|
口口口口 |----|
39
口口口口 |①---|
口①①口 |----|
口②②口 |②---|
口口口口 |----|
40
口口口口 |①---|
口口口口 |----|
口口口口 |----|
口①①口 |----|
41
口口口口 |①---|
口①①口 |----|
口②②口 |②---|
口口口口 |----|
42
④口口① |①---|
③口口② |②---|
②口口③ |③---|
①口口④ |④---|
43
口①④口 |①---|
口②③口 |②---|
口③②口 |③---|
口④①口 |④---|
44
口口口口 |----|
口口口口 |----|
口口口口 |----|
口口口口 |----|
45
口口口① |①---|
②口口口 |----|
口口口口 |②---|
口口口口 |----|
46
口口口口 |①---|
口口口口 |----|
口口口① |②---|
②口口口 |----|
47
口口口口 |①---|
口口口口 |②---|
口口口口 |③---|
②④③① |④---|
48
口口口口 |----|
口口口口 |----|
口口口口 |----|
口口口口 |----|
49
口口口口 |①---|
口①①口 |----|
口②②口 |②---|
口口口口 |----|
50
口口④口 |①---|
口口③口 |②---|
口口②口 |③---|
口口①口 |④---|
51
口④口口 |①---|
口③口口 |②---|
口②口口 |③---|
口①口口 |④---|
52
口口口口 |----|
口口口口 |----|
口口口口 |----|
口口口口 |----|
53
①口口① |①---|
口②②口 |----|
口口口口 |②---|
口口口口 |----|
54
口口口口 |①---|
口口口口 |----|
口①①口 |----|
口③②口 |②-③-|
55
口口口口 |----|
口口口口 |----|
口口口口 |----|
口口口口 |----|
56
①口口① |①---|
口口口口 |----|
口口口口 |----|
口口口口 |----|
57
①口口① |①---|
口②②口 |----|
口口口口 |②---|
口口口口 |----|
58
口口口口 |①---|
口口口口 |----|
口①①口 |----|
口口②口 |②---|
59
口口口口 |①---|
口口口口 |----|
口口口口 |----|
口①口口 |----|


不确定度: 0

最終更新:2012年11月27日 00:52