My Love
川嶋あい

ADVANCED

Level: 4
BPM: 140
Notes: 302

1
口口口口 |----|
口口口口 |----|
口口口口 |----|
口口口口 |----|
2
①口口① |①---|
口①①口 |----|
口②口口 |②---|
口②②② |----|
3
①①口口 |①---|
②②口口 |②---|
③③口口 |③---|
④④口口 |④---|
4
口口④④ |①---|
口口③③ |②---|
口口②② |③---|
口口①① |④---|
5
口口口口 |----|
①口口① |----|
②口口② |--①-|
③口口③ |②-③-|
6
⑤④④⑤ |①-②-|
⑥③③⑥ |③-④-|
⑦②②⑦ |⑤-⑥-|
⑧①①⑧ |⑦-⑧-|
7
口口口口 |----|
口②①口 |----|
口口口口 |----|
口口口口 |①-②-|
8
口口口口 |----|
口口口口 |----|
口口口口 |----|
口口口口 |----|
9
①口口① |----|
口①①口 |----|
口②口口 |--①-|
口②②② |--②-|
10
口口口口 |----|
口口口口 |----|
口口口口 |----|
口口口口 |----|
11
⑧口口⑦ |①-②-|
⑥口口⑤ |③-④-|
④口口③ |⑤-⑥-|
②口口① |⑦-⑧-|
12
口②①口 |①-②-|
口④③口 |③-④-|
口⑥⑤口 |⑤-⑥-|
口⑧⑦口 |⑦-⑧-|
13
⑧口口⑦ |①-②-|
⑥口口⑤ |③-④-|
④口口③ |⑤-⑥-|
②口口① |⑦-⑧-|
14
口②①口 |①-②-|
口④③口 |③-④-|
口⑥⑤口 |⑤-⑥-|
口⑧⑦口 |⑦-⑧-|
15
①口口① |----|
口①①口 |----|
口②口口 |①---|
口②②② |--②-|
16
口口口口 |----|
口口口口 |----|
口口口口 |----|
口口口口 |----|
17
口②①口 |①-②-|
口④③口 |③-④-|
口⑥⑤口 |⑤-⑥-|
口⑧⑦口 |⑦-⑧-|
18
口口口口 |----|
口口口口 |----|
口口口口 |----|
口口口口 |----|
19
②口口① |①-②-|
④口口③ |③-④-|
⑥口口⑤ |⑤-⑥-|
⑧口口⑦ |⑦-⑧-|
20
口口口口 |----|
口口口口 |----|
口口口口 |----|
口口口口 |----|
21
②口口② |①---|
口①①口 |②---|
口③③口 |----|
口口口口 |③---|
22
口口口口 |①---|
口口口口 |----|
口口口口 |----|
①口口① |----|
23
④口口① |①---|
③口口② |②---|
②口口③ |③---|
①口口④ |④---|
24
口口口口 |①---|
口①口口 |----|
口口①口 |----|
口口口口 |----|
25
④④④④ |①---|
口③③口 |②---|
口②②口 |③---|
口①①口 |④---|
26
口口口口 |----|
口口口口 |----|
口口口口 |----|
口口口口 |----|
27
口口口口 |①---|
②②①① |----|
口口口口 |②---|
口口口口 |----|
28
口口口口 |①---|
口口口口 |----|
③①①口 |②---|
②口口口 |③---|
29
口②③口 |①---|
①口口④ |②---|
口口口口 |③---|
口口口口 |④---|
30
口口口口 |①---|
口口口口 |②---|
口口口① |----|
口口口② |----|
31
④口口① |①---|
③口口② |②---|
②口口③ |③---|
①口口④ |④---|
32
口口口口 |①---|
口①口口 |----|
口口①口 |----|
口口口口 |----|
33
④口口① |①---|
③口口② |②---|
②口口③ |③---|
①口口④ |④---|
34
口①②③ |①---|
口口口④ |②---|
④口口口 |③---|
③②①口 |④---|
35
②③④口 |①---|
①口口口 |②---|
口口口① |③---|
口④③② |④---|
36
④口口① |①---|
③口口② |②---|
②口口③ |③---|
①口口④ |④---|
37
口口口口 |①---|
口①①口 |----|
②②口口 |②---|
口口口口 |----|
38
口口口口 |①---|
口口口口 |----|
口口②② |②---|
口①①口 |----|
39
口口口口 |①---|
口口口口 |②---|
口③④口 |③---|
口②①口 |④---|
40
口口口口 |①---|
口①①口 |----|
口口口口 |----|
口口口口 |----|
41
①口口① |①---|
口①①口 |----|
口②口口 |②---|
口②②② |----|
42
④口口① |①---|
③口口② |②---|
②口口③ |③---|
①口口④ |④---|
43
口①④口 |①---|
口②③口 |②---|
口③②口 |③---|
口④①口 |④---|
44
口口口口 |①---|
口①口口 |----|
口口①口 |----|
口口口口 |----|
45
口口口口 |①---|
③口口① |②---|
②口口② |③---|
①口口③ |----|
46
口口口口 |①---|
口①③口 |②---|
口②②口 |③---|
口③①口 |----|
47
口口口口 |①---|
口口口口 |②---|
口口口口 |③---|
④③①② |④---|
48
口口口口 |①---|
口口口口 |----|
口①①口 |----|
口口口口 |----|
49
①口口① |①---|
口①①口 |----|
口③②② |②---|
口③③③ |③---|
50
①①口口 |①---|
②②口口 |②---|
③③口口 |③---|
④④口口 |④---|
51
口口④④ |①---|
口口③③ |②---|
口口②② |③---|
口口①① |④---|
52
口口口口 |----|
口口口口 |----|
口口口口 |----|
口口口口 |----|
53
①口口① |①---|
口②②口 |----|
口口口口 |②---|
口口口口 |----|
54
口口口口 |①---|
口口口口 |----|
口①①口 |----|
口③②口 |②-③-|
55
口口口口 |----|
口口口口 |----|
口口口口 |----|
口口口口 |----|
56
①口口① |①---|
口①①口 |----|
口口口口 |----|
口口口口 |----|
57
①口口① |①---|
口②②口 |----|
口口口口 |②---|
口口口口 |----|
58
口口口口 |①---|
口口口口 |----|
口①①口 |----|
口口口口 |----|
59
口口口口 |①---|
口①①口 |----|
口①①口 |----|
口口口口 |----|


不确定度: 0

最終更新:2012年11月27日 00:52