My Love
川嶋あい

EXTREME

Level: 6
BPM: 140
Notes: 391

1
口口口口 |----|
口口口口 |----|
口口口口 |----|
口口口口 |----|
2
①口口① |①---|
②①①口 |----|
②①①口 |②---|
②②②② |----|
3
①①口口 |①---|
②②口口 |②---|
③③口口 |③---|
④④口口 |④---|
4
口口④④ |①---|
口口③③ |②---|
口口②② |③---|
口口①① |④---|
5
③②②③ |----|
口①①口 |----|
口口口口 |--①-|
口口口口 |②-③-|
6
⑧⑧⑦⑦ |①-②-|
⑥⑥⑤⑤ |③-④-|
④④③③ |⑤-⑥-|
②②①① |⑦-⑧-|
7
口口口口 |----|
口②①口 |----|
口口口口 |----|
口口口口 |①-②-|
8
口口口口 |----|
口口口口 |----|
口口口口 |----|
口口口口 |----|
9
口①①① |----|
②口①口 |----|
②口①口 |--①-|
②②②② |--②-|
10
口口口口 |----|
口口口口 |----|
口口口口 |----|
口口口口 |----|
11
⑧口口⑦ |①-②-|
⑥口口⑤ |③-④-|
④口口③ |⑤-⑥-|
②口口① |⑦-⑧-|
12
口②①口 |①-②-|
口④③口 |③-④-|
口⑥⑤口 |⑤-⑥-|
口⑧⑦口 |⑦-⑧-|
13
口口②① |①-②-|
口口④③ |③-④-|
口口⑥⑤ |⑤-⑥-|
口口⑧⑦ |⑦-⑧-|
14
②①口口 |①-②-|
④③口口 |③-④-|
⑥⑤口口 |⑤-⑥-|
⑧⑦口口 |⑦-⑧-|
15
①口口① |①---|
②①①② |②-③-|
③口口③
口口口口

口口口口
口⑤⑤口
口⑤⑤口 |--④-|
口④④口 |--⑤-|
16
口口口口 |----|
口口口口 |----|
口口口口 |----|
口口口口 |----|
17
①②②① |①-②-|
③④④③ |③-④-|
⑤⑥⑥⑤ |⑤-⑥-|
⑦⑧⑧⑦ |⑦-⑧-|
18
口口口口 |----|
口口口口 |----|
口口口口 |----|
口口口口 |----|
19
⑦⑧⑧⑦ |①-②-|
⑤⑥⑥⑤ |③-④-|
③④④③ |⑤-⑥-|
①②②① |⑦-⑧-|
20
口口口口 |----|
口口口口 |----|
口口口口 |----|
口口口口 |----|
21
④口口② |①-②-|
口③①口 |③-④-|
口口口口 |----|
口⑤⑤口 |⑤---|
22
口口口口 |①-②-|
④口口② |③-④-|
口③①口 |----|
口口口口 |----|
23
④口口① |①---|
③口口② |②---|
②口口③ |③---|
①口口④ |④---|
24
口口口口 |①---|
口①口口 |----|
口口①口 |----|
口口口口 |----|
25
⑦⑦⑦⑦ |①-②-|
⑤⑥⑥⑤ |③-④-|
③④④③ |⑤-⑥-|
①②②① |⑦---|
26
口口口口 |----|
口口口口 |----|
口口口口 |----|
口口口口 |----|
27
口口①① |①---|
②②口口 |②---|
口口③③ |③---|
④④口口 |④---|
28
口口口口 |----|
口①口② |----|
②口①口 |①---|
口口口口 |②---|
29
口②③口 |①---|
①口口④ |②---|
④口口① |③---|
口③②口 |④---|
30
口口口口 |①---|
①口口口 |----|
口口口① |----|
口口口口 |----|
31
④口口① |①---|
③口口② |②---|
②口口③ |③---|
①口口④ |④---|
32
口口口口 |①---|
口①口口 |----|
口口①口 |----|
口口口口 |----|
33
④口口① |①---|
③④①② |②---|
②①④③ |③---|
①口口④ |④---|
34
④口口① |①---|
③④①② |②---|
②①④③ |③---|
①口口④ |④---|
35
④口口① |①---|
③④①② |②---|
②①④③ |③---|
①口口④ |④---|
36
口口口① |①---|
③口①② |②---|
②①口③ |③---|
①口口口 |----|
37
①口口① |①---|
②口口② |②---|
口③③口 |③---|
口口口口 |----|
38
口口口口 |①---|
口③③口 |②---|
②口口② |③---|
①口口① |----|
39
口⑤⑤口 |①---|
口④③口 |②---|
口②②口 |③-④-|
口①①口 |--⑤-|
40
口口口口 |----|
口口口口 |----|
口口口口 |----|
口口口口 |----|
41
①口口① |①---|
口①①口 |----|
口②口口 |②---|
口②②② |----|
42
④口口① |①---|
③口口② |②---|
②口口③ |③---|
①口口④ |④---|
43
口①④口 |①---|
口②③口 |②---|
口③②口 |③---|
口④①口 |④---|
44
口口口口 |----|
口口口口 |----|
口口口口 |----|
口口口口 |----|
45
④口口① |①-②-|
③口口② |③-④-|
②口口③ |----|
①口口④ |----|
46
口①④口 |①-②-|
口②③口 |③-④-|
口③②口 |----|
口④①口 |----|
47
②①③④ |①---|
口口口口 |②---|
口口口口 |③---|
④③①② |④---|
48
口口口口 |----|
口口口口 |----|
口口口口 |----|
口口口口 |----|
49
口①①口 |①---|
口①①口 |----|
口③②② |②---|
口③③③ |③---|
50
①①口口 |①---|
②②口口 |②---|
③③口口 |③---|
④④口口 |④---|
51
口口④④ |①---|
口口③③ |②---|
口口②② |③---|
口口①① |④---|
52
口口口口 |----|
③口口③ |----|
②口口② |--①-|
①口口① |②-③-|
53
①②②① |①---|
口③③口 |②-③-|
口⑤⑤口 |--④-|
口④④口 |--⑤-|
54
口口口口 |----|
口②①口 |----|
口口口口 |----|
口口口口 |①-②-|
55
口口口口 |----|
口口口口 |----|
口口口口 |----|
口口口口 |----|
56
①口口① |①---|
④①①④ |----|
③①①③ |--②-|
②口口② |③-④-|
57
①②②① |①---|
口③③口 |②-③-|
口⑤⑤口 |----|
口④④口 |④-⑤-|
58
口②①口 |----|
口③③口 |----|
口口口口 |--①-|
口口口口 |②-③-|


不确定度: 0

最終更新:2012年11月27日 00:51