Plum
肥塚良彦

EXTREME

Level: 9
BPM: 256
Notes: 693

1
口口口口 |----|
口口口口 |----|
口口口口 |----|
口口口口
2
口口口口 |----|
口口口口 |----|
口口口口 |----|
口口口口
3
①口口① |①---|
口④③② |②-③-|
口口口口 |④---|
口口口口
4
口口口口 |①---|
口口口口 |②-③-|
①口口① |④---|
②③④口
5
①口口① |①---|
口④③② |②-③-|
口口口口 |④---|
口口口口
6
③①②口 |①---|
口口口口 |②---|
口口口口 |③---|
②口③①
7
口口口① |①---|
②口口③ |②---|
③口口② |③---|
口①口口
8
②①③口 |①---|
口口口口 |②---|
口口口口 |③---|
③口②①
9
口口口① |①---|
②口口口 |②---|
③口口② |③---|
口①口③
10
口口口口 |①---|
口口③② |②-③-|
口①①口 |④-⑤-|
口⑤④口
11
口口②③ |①---|
②③口口 |②---|
口口口① |③---|
①口口口
12
③②口口 |①---|
口口③② |②---|
①口口口 |③---|
口口口①
13
口口口口 |①---|
②口口口 |②---|
③口口② |③---|
口①①③
14
口①①口 |①---|
口④③② |②-③-|
口口口口 |④---|
口口口口
15
口口口口 |①-②-|
口口口口 |--③-|
口口④③ |④---|
①②口口
16
②口口② |①---|
①口口① |②---|
口口口口
口口口口
17
口口口口 |①-②-|
口口口口 |--③-|
口口④③ |④---|
①②口口
18
②口口② |①---|
①口口① |②---|
口口口口
口口口口
19
口口口口 |①-②-|
口口口口 |--③-|
口口④③ |④---|
①②口口
20
②口口② |①---|
①口口① |②---|
口口口口
口口口口
21
口口口口 |①-②-|
口口口口 |--③-|
口口④③ |④---|
①②口口
22
口口③④ |①-②-|
①②口口 |③-④-|
口口口口
口口口口
23
口口口口 |①-②-|
口口口口 |--③-|
口口④③ |④---|
①②口口
24
②口口② |①---|
①口口① |②---|
口口口口
口口口口
25
口口口口 |①-②-|
口口口口 |--③-|
口口④③ |④---|
①②口口
26
②口口② |①---|
①口口① |②---|
口口口口
口口口口
27
口口口口 |①---|
口口口口 |--②-|
①口口② |----|
②口口①
28
②口口② |①---|
①口口① |②---|
口口口口
口口口口
29
口口口口 |①---|
口口口口 |--②-|
①口口② |----|
②口口①
30
口口口口 |①---|
口①①口 |----|
口①①口
口口口口
31
①②口口 |----|
口口口口 |①-②-|
口口口口 |③-④-|
口口④③
32
口口口口 |①---|
口②②口 |②---|
①口口① |----|
口口口口
33
①②口口 |----|
口口口口 |①-②-|
口口口口 |③-④-|
口口④③
34
口口口口 |①---|
口口口口 |----|
口①口口 |----|
口口口口
35
①②口口 |----|
口口口口 |①-②-|
口口口口 |③-④-|
口口④③
36
口口口口 |①---|
①③③① |②---|
口②②口 |③---|
口口口口
37
②口口③ |①---|
口口口口 |②---|
①口口① |③---|
②口口③
38
口①①口 |①---|
口口③② |----|
口①①口 |②-③-|
口口口口
39
②口③口 |①---|
口①口口 |②---|
口口口口 |③---|
口②口③
40
口③口② |①---|
口口口口 |②---|
口①①口 |③---|
③口②口
41
口口口口 |①---|
口①①口 |----|
②口口口 |②---|
口口口②
42
①口口口 |①---|
口口口① |②-③-|
口④③② |④---|
口口口口
43
口口口口 |①---|
②③④口 |②-③-|
口口口口 |④---|
口①①口
44
②①①③ |①---|
口口口口 |②---|
口口口口 |③---|
②口口③
45
口口口口 |①---|
口口口口 |②-③-|
口④③② |④---|
口①①口
46
口①①口 |①---|
②③④口 |②-③-|
口口口口 |④---|
口口口口
47
①②口口 |----|
口口口口 |①-②-|
口口口口 |③-④-|
口口④③
48
口口口口 |①---|
②口口② |②---|
口①①口 |----|
口口口口
49
①②口口 |----|
口口口口 |①-②-|
口口口口 |③-④-|
口口④③
50
口口口口 |①---|
口口口口 |----|
口①口口 |----|
口口口口
51
①②口口 |----|
口口口口 |①-②-|
口口口口 |③-④-|
口口④③
52
口口口口 |①---|
①③③① |②---|
口②②口 |③---|
口口口口
53
②口口③ |①---|
口口口口 |②---|
①口口① |③---|
②口口③
54
口①①口 |①---|
口口③② |----|
口①①口 |②-③-|
口口口口
55
②口③口 |①---|
口①口口 |②---|
口口口口 |③---|
口②口③
56
口口口② |①---|
②口口口 |②---|
口①①③ |③---|
③口口口
57
口②口口 |①---|
口①①③ |②---|
口口口口 |③---|
口口口口
58
口口口口 |①---|
②③口口 |----|
口①口口 |②-③-|
口口口口
59
口口口口 |①---|
口口①口 |--②-|
口③④口 |③-④-|
②口口口
60
口口口口 |①---|
④口口① |--②-|
口口口③ |③-④-|
口口口②
61
①口口口 |①---|
口口④口 |--②-|
口③口口 |③-④-|
口②口口
62
口口①口 |①---|
口④口口 |--②-|
口口③② |③-④-|
口口口口
63
口口口口 |①---|
①口口④ |--②-|
③口口口 |③-④-|
②口口口
64
口口口① |①---|
口④口口 |--②-|
口口③口 |③-④-|
口口②口
65
口①口口 |①---|
口口④口 |--②-|
②③口口 |③-④-|
口口口口
66
①③口② |①---|
口口口① |②---|
口口口口 |③---|
③口②口
67
④口口口 |①-②-|
口①口④ |--③-|
③口②口 |--④-|
口口口③
68
口②①口 |①-②-|
口④③口 |③-④-|
口口⑤口 |⑤---|
口口口口
69
口口口口 |--①-|
口口口⑤ |②-③-|
③④口口 |④-⑤-|
口口②①
70
口口口口 |①---|
口口①口 |----|
口口③② |②-③-|
口口口口
71
③口口② |①---|
⑤①口④ |②-③-|
口口口口 |④-⑤-|
口口口口
72
口②①口 |①---|
口口口口 |②---|
口口口口
口口②①
73
③口口② |①---|
⑤①口④ |②-③-|
口口口口 |④-⑤-|
口口口口
74
口②①口 |①---|
口口口口 |②---|
口口口口
口口②①
75
③口口② |①---|
⑤①口④ |②-③-|
口口口口 |④-⑤-|
口口口口
76
口③①口 |①---|
口口口口 |②---|
口口口② |③---|
②③口①
77
口口口口 |①---|
②③⑤④ |②-③-④-|
口①①口 |⑤---|
口口口口
78
口口口口 |①---|
口口口口 |----|
口口③② |②-③-|
①口口①
79
③口口② |①---|
⑤①口④ |②-③-|
口口口口 |④-⑤-|
口口口口
80
口②①口 |①---|
口口口口 |②---|
口口口口
口口②①
81
③口口② |①---|
⑤①口④ |②-③-|
口口口口 |④-⑤-|
口口口口
82
口②①口 |①---|
口口口口 |②---|
口口口口
口口②①
83
③口口② |①---|
⑤①口④ |②-③-|
口口口口 |④-⑤-|
口口口口
84
口③①口 |①---|
口口口口 |②---|
口口口② |③---|
②③口①
85
口口口① |①---|
③口口③ |②---|
口②②口 |③---|
口口①口
86
口②①口 |①-②-|
口④③口 |③-④-|
口口口口 |⑤---|
口口口⑤
87
①口口① |①---|
口口口口 |--②-|
口口口口 |----|
口②②口
88
口①①口 |①---|
②口口③ |②---|
口口口口 |③---|
③口口②
89
口②②口 |①---|
口口口口 |--②-|
口①①口 |----|
口口口口
90
②口口③ |①---|
口①①口 |②---|
口口口口 |③---|
②口口③
91
口口口口 |①---|
②口口② |--②-|
口①①口 |----|
口口口口
92
口口口口 |①---|
口①①口 |--②-|
口口口口 |----|
口②②口
93
口口口口 |①---|
②口口② |--②-|
①口口① |----|
口口口口
94
①②②① |①---|
口②②口 |--②-|
口口口口 |----|
口口口口
95
②口口② |①---|
口口口口 |--②-|
口口口口 |----|
口①①口
96
口②②口 |①---|
口口口口 |--②-|
口口口口 |----|
①口口①
97
②口口② |①---|
口口口口 |--②-|
口口口口 |----|
口①①口
98
口口口口 |①-②-|
口③②① |③-④-|
④⑤⑥口 |⑤-⑥-|
口口口口
99
③口口口 |①---|
口口口口 |②---|
口口口① |③---|
②口口①
100
口③口口 |①---|
口①①口 |②---|
口口口口 |③---|
口②口口
101
口口③口 |①---|
口口口口 |②---|
口①①口 |③---|
口口②口
102
口口口口 |①---|
口①①口 |----|
口口口口 |----|
口口口口
103
口口口口 |----|
口口口口 |①-②-|
口③②① |③---|
口口口口
104
①口口② |①---|
口口口口 |②---|
口口口口 |----|
①口口②
105
口口口口 |----|
①②③口 |①-②-|
口口口口 |③---|
口口口口
106
①口口② |①---|
口口口口 |②---|
口口口口 |----|
①口口②
107
口③②口 |①---|
口⑤④口 |②-③-|
①口口① |④-⑤-|
口口口口
108
口口口口 |①---|
口口口口 |②-③-|
口③②口 |④---|
①口④①
109
①④口① |①---|
口口③② |②-③-|
口口口口 |④---|
口口口口
110
口口口口 |①---|
②③口口 |----|
①口口① |②-③-|
口口口口
111
口口口口 |①---|
口口①口 |--②-|
口③④口 |③-④-|
②口口口
112
口口口口 |①---|
④口口① |--②-|
口口口③ |③-④-|
口口口②
113
①口口口 |①---|
口口④口 |--②-|
口③口口 |③-④-|
口②口口
114
口口①口 |①---|
口④口口 |--②-|
口口③② |③-④-|
口口口口
115
口口口口 |①---|
①口口④ |--②-|
③口口口 |③-④-|
②口口口
116
口口口① |①---|
口④口口 |--②-|
口口③口 |③-④-|
口口②口
117
口①口口 |①---|
口口④口 |--②-|
②③口口 |③-④-|
口口口口
118
②口口③ |①---|
口口口① |②---|
口口口口 |③---|
②口口③
119
口口口口 |----|
口口口口 |----|
口口②① |①-②-|
口口口口
120
③口口② |①---|
⑤①口④ |②-③-|
口口口口 |④-⑤-|
口口口口
121
口②①口 |①---|
口口口口 |②---|
口口口口
口口②①
122
③口口② |①---|
⑤①口④ |②-③-|
口口口口 |④-⑤-|
口口口口
123
口②①口 |①---|
口口口口 |②---|
口口口口
口口②①
124
③口口② |①---|
⑤①口④ |②-③-|
口口口口 |④-⑤-|
口口口口
125
口③①口 |①---|
口口口口 |②---|
口口口② |③---|
②③口①
126
口口口① |①---|
③口口③ |②---|
口②②口 |③---|
口口①口
127
口②①口 |①-②-|
口④③口 |③-④-|
口口口口 |⑤---|
口口口⑤
128
①口口① |①---|
口口口口 |②---|
③②③② |③---|
口口口口
129
口①①口 |①---|
②口口③ |②---|
口口口口 |③---|
③口口②
130
口③③口 |①---|
口口口口 |②---|
②口口② |③---|
口①①口
131
②口口③ |①---|
口①①口 |②---|
口口口口 |③---|
②口口③
132
口②③口 |①---|
③口口② |②---|
口①①口 |③---|
口口口口
133
口口口口 |①---|
口①①口 |②---|
口口口口 |③---|
③②③②
134
口口口口 |①---|
③口口② |②---|
①②③① |③---|
口口口口
135
①③③① |①---|
口口口口 |②---|
口口口口 |③---|
②口口②
136
②口口② |①---|
口口口口 |--②-|
口口口口 |----|
口①①口
137
口②②口 |①---|
口口口口 |--②-|
口口口口 |----|
①口口①
138
②口口② |①---|
口口口口 |--②-|
口口口口 |----|
口①①口
139
口口口口 |①-②-|
口③②① |③-④-|
④⑤⑥口 |⑤-⑥-|
口口口口
140
②口口② |①---|
口口口口 |--②-|
口口口① |----|
口①①口
141
口②②口 |①---|
口口口口 |--②-|
口口口口 |----|
①口口①
142
②口口② |①---|
口口口口 |--②-|
口口口口 |----|
口①①口
143
口口口口 |①-②-|
口③②① |③-④-|
④⑤⑥口 |⑤-⑥-|
口口口口
144
③口口口 |①---|
口口口口 |②---|
口口口① |③---|
②口口①
145
口③口口 |①---|
口①①口 |②---|
口口口口 |③---|
口②口口
146
口口③口 |①---|
口口口口 |②---|
口①①口 |③---|
口口②口
147
口口口口 |①---|
口①①口 |----|
口口口口 |----|
口口口口
148
②口口③ |①---|
口口口口 |②---|
口①①口 |③---|
②口口③

BPM: 246
149
口②③口 |①---|
口①①口 |②---|
口口口口 |③---|
口②③口

BPM: 216
150
②口口口 |①---|
口口口口 |②---|
口①①口
②口口口

BPM: 166

口口口③
口口口口
口口口口 |③---|
口口口③
151
口口口口 |①---|
①①①① |----|
口口口口 |----|
口口口口


不確定度: 0

タグ:

+ タグ編集
  • タグ:

このサイトはreCAPTCHAによって保護されており、Googleの プライバシーポリシー利用規約 が適用されます。

最終更新:2013年03月29日 20:33