魁!ミッドナイト
RIKI

BASIC

Level: 3
BPM: 140
Notes: 222

1
口口口口 |----|
口口口口 |----|
口口口口 |----|
口口口口 |----|
2
口②③口 |①---|
①口口④ |②---|
口口口口 |③---|
口口口口 |④---|
3
口④④口 |①---|
口③③口 |②---|
口①②口 |③---|
口口口口 |④---|
4
口口口口 |①---|
口②③口 |②---|
①口口④ |③---|
口口口口 |④---|
5
口口口口 |①---|
口④④口 |②---|
口③③口 |③---|
口①②口 |④---|
6
口②③口 |①---|
①口口④ |②---|
口口口口 |③---|
口口口口 |④---|
7
口④④口 |①---|
口③③口 |②---|
口①②口 |③---|
口口口口 |④---|
8
口口口口 |①---|
口②③口 |②---|
①口口④ |③---|
口口口口 |④---|
9
口口口口 |①---|
口④④口 |②---|
口③③口 |③---|
口①②口 |④---|
10
②口口① |①-②-|
④口口③ |--③-|
口口口⑤ |--④-|
口口口口 |--⑤-|
11
口口口口 |--①-|
③口口③ |----|
①②②口 |②---|
口口口口 |③---|
12
①口口④ |①---|
口②③口 |②---|
口口口口 |③---|
口口口口 |④---|
13
①口口④ |①---|
口②③口 |②---|
口口口口 |③---|
口口口口 |④---|
14
①口口口 |①---|
口②口口 |②---|
③口口口 |③---|
口④口口 |④---|
15
口口口① |①---|
口口②口 |②---|
口口口③ |③---|
口口④口 |④---|
16
口口口口 |①---|
口口口口 |②---|
①口口④ |③---|
口②③口 |④---|
17
口口口口 |①---|
口口口口 |②---|
①口口④ |③---|
口②③口 |④---|
18
①口口口 |①---|
口②口口 |②---|
③口口口 |③---|
口④口口 |④---|
19
口口口① |①---|
口口②口 |②---|
口口口③ |③---|
口口④口 |④---|
20
口④口口 |①---|
口③口口 |②---|
口②口口 |③---|
口①口口 |④---|
21
口口④口 |①---|
口口③口 |②---|
口口②口 |③---|
口口①口 |④---|
22
①口口口 |①---|
口②口口 |②---|
口口③口 |③---|
口口口④ |④---|
23
口口口① |①---|
口口②口 |②---|
口③口口 |③---|
④口口口 |④---|
24
口口口口 |①---|
①②③④ |②---|
口口口口 |③---|
口口口口 |④---|
25
口口口口 |①---|
口口口口 |②---|
④③②① |③---|
口口口口 |④---|
26
①口口③ |①---|
②口口④ |②---|
口口口口 |③---|
口口口口 |④---|
27
口口口口 |①---|
口①③口 |②---|
口②④口 |③---|
口口口口 |④---|
28
①口口① |①---|
口口口口 |----|
②口口② |②---|
③口口③ |③---|
29
①口口① |①---|
口口口口 |----|
②口口② |②---|
③口口③ |③---|
30
口①①口 |①---|
口口口口 |----|
口②②口 |②---|
口③③口 |③---|
31
口口口口 |①---|
③口口③ |②---|
②口口② |③---|
①口口① |----|
32
①口口① |①---|
口口口口 |----|
②口口② |②---|
③口口③ |③---|
33
①口口① |①---|
口口口口 |----|
②口口② |②---|
③口口③ |③---|
34
①口口① |①---|
口口口口 |----|
②口口② |②---|
③口口③ |③---|
35
口口口口 |①---|
口①①口 |----|
口②②口 |②---|
口口口口 |----|
36
口口口口 |①---|
口③③口 |②---|
①口口② |③---|
口口口口 |----|
37
①口口口 |①---|
②口口口 |----|
③口口口 |②---|
口口口口 |③---|
38
口口口① |①---|
口口口② |----|
口口口③ |②---|
口口口口 |③---|
39
①口口口 |①---|
②口口口 |----|
③口口口 |②---|
口口口口 |③---|
40
口③③口 |①---|
口②②口 |②---|
口①①口 |③---|
口口口口 |----|
41
口口口① |①---|
口口口② |----|
口口口③ |②---|
口口口口 |③---|
42
①口口口 |①---|
②口口口 |----|
③口口口 |②---|
口口口口 |③---|
43
口口口① |①---|
口口口② |----|
口口口③ |②---|
口口口口 |③---|
44
③口口③ |①---|
口口口口 |----|
口①②口 |②---|
口口口口 |③---|
45
口口口口 |①---|
③口口口 |----|
②口口口 |②---|
①口口口 |③---|
46
口口口口 |①---|
口口口③ |----|
口口口② |②---|
口口口① |③---|
47
口口口口 |①---|
③口口口 |----|
②口口口 |②---|
①口口口 |③---|
48
口③③口 |①---|
口②②口 |②---|
口①①口 |③---|
口口口口 |----|
49
口口口口 |①---|
口口口③ |----|
口口口② |②---|
口口口① |③---|
50
口口口口 |①---|
③口口口 |----|
②口口口 |②---|
①口口口 |③---|
51
口口口口 |①---|
口口口③ |----|
口口口② |②---|
口口口① |③---|
52
③口口③ |①---|
口②②口 |----|
口①①口 |②---|
口口口口 |③---|


不确定度: 0

最終更新:2012年11月27日 00:51