魁!ミッドナイト
RIKI

ADVANCED

Level: 5
BPM: 140
Notes: 333

1
口口口口 |----|
口口口口 |----|
口口口口 |----|
口口口口 |----|
2
口④③口 |①---|
口口口② |②---|
口口口① |③---|
口口口口 |④---|
3
①口口口 |①-②-|
②口口⑥ |③-④-|
③口⑥⑤ |⑤---|
④口⑤口 |⑥---|
4
口③④口 |①---|
②口口口 |②---|
①口口口 |③---|
口口口口 |④---|
5
口口口① |①-②-|
⑥口口② |③-④-|
⑤⑥口③ |⑤---|
口⑤口④ |⑥---|
6
口①①口 |①---|
口口口② |②---|
口口口③ |③---|
口口④口 |④---|
7
①口口口 |①-②-|
口②口⑥ |③-④-|
③口⑥⑤ |⑤---|
口④⑤口 |⑥---|
8
口①①口 |①---|
②口口口 |②---|
③口口口 |③---|
口④口口 |④---|
9
口口口① |①-②-|
⑥口②口 |③-④-|
⑤⑥口③ |⑤---|
口⑤④口 |⑥---|
10
②②①① |①-②-|
④④③③ |--③-|
口口⑤⑤ |--④-|
口口口口 |--⑤-|
11
③口口③ |--①-|
④口口④ |--②-|
①①口口 |③-④-|
⑤②②⑤ |⑤---|
12
口④口口 |--①-|
口③口口 |②-③-|
口②口口 |④---|
口①口口 |----|
13
口⑤④口 |--①-|
口⑥③口 |②-③-|
口⑦②口 |④-⑤-|
口口①口 |⑥-⑦-|
14
口口口① |①-②-|
口⑥口② |③-④-|
口口⑤③ |--⑤-|
口口口④ |⑥---|
15
①②③④ |--①-|
口口口⑤ |②-③-|
口口口⑥ |④-⑤-|
口口口⑦ |⑥-⑦-|
16
口⑤口口 |①-②-|
口④口口 |③-④-|
口③口口 |⑤---|
口②①口 |----|
17
口口④⑤ |--①-|
口口③⑥ |②-③-|
口口②⑦ |④-⑤-|
口口①口 |⑥-⑦-|
18
口口口口 |----|
口②口口 |①-②-|
口口①口 |----|
口口口口 |----|
19
②③④⑤ |--①-|
①口口⑥ |②-③-|
口口口⑦ |④-⑤-|
口口口口 |⑥-⑦-|
20
口口⑤口 |①-②-|
口口④口 |③-④-|
口口③口 |⑤---|
口口②① |----|
21
⑤④口口 |--①-|
⑥③口口 |②-③-|
⑦②口口 |④-⑤-|
口①口口 |⑥-⑦-|
22
口口口④ |①-②-|
口口③⑤ |③-④-|
口②口⑥ |--⑤-|
①口口口 |⑥---|
23
④③②① |--①-|
⑤口口口 |②-③-|
⑥口口口 |④-⑤-|
⑦口口口 |⑥-⑦-|
24
口口⑤口 |①-②-|
口口④口 |③-④-|
口口③口 |⑤---|
口①②口 |----|
25
⑤④口口 |--①-|
⑥③口口 |②-③-|
⑦②口口 |④-⑤-|
口①口口 |⑥-⑦-|
26
口口口④ |----|
口口③口 |①-②-|
口②口口 |--③-|
①口口口 |④---|
27
口口①口 |--①-|
口②⑦口 |②-③-|
口⑥③口 |④-⑤-|
口④⑤口 |⑥-⑦-|
28
①①口口 |①---|
①①口口 |----|
②②口口 |②---|
③③口口 |③---|
29
口口①① |①---|
口口①① |----|
口口②② |②---|
口口③③ |③---|
30
口①①口 |①---|
口①①口 |----|
口②②口 |②---|
口③③口 |③---|
31
口口口口 |①---|
口口口口 |②---|
②③③② |③---|
①口口① |----|
32
①①口口 |①---|
①①口口 |----|
②②口口 |②---|
③③口口 |③---|
33
口口①① |①---|
口口①① |----|
口口②② |②---|
口口③③ |③---|
34
口①①口 |①---|
口①①口 |----|
口②②口 |②---|
口③③口 |③---|
35
①①①① |①---|
②②②② |----|
口口口口 |②---|
口口口口 |----|
36
口③③口 |①---|
口③③口 |②---|
口②②口 |③---|
口①①口 |----|
37
①口口口 |①---|
②口口③ |----|
③口口② |②---|
口口口① |③---|
38
①口口口 |①---|
②口口③ |----|
③口口② |②---|
口口口① |③---|
39
①口口口 |①---|
②口口③ |----|
③口口② |②---|
口口口① |③---|
40
口③口口 |①---|
口②③口 |②---|
口①②口 |③---|
口口①口 |----|
41
口口口① |①---|
③口口② |----|
②口口③ |②---|
①口口口 |③---|
42
口口口① |①---|
③口口② |----|
②口口③ |②---|
①口口口 |③---|
43
口口口① |①---|
③口口② |----|
②口口③ |②---|
①口口口 |③---|
44
口口口④ |①---|
口③③口 |②---|
④②②口 |③---|
口①①口 |④---|
45
①口口口 |①---|
②口口③ |----|
③口口② |②---|
口口口① |③---|
46
①口口口 |①---|
②口口③ |----|
③口口② |②---|
口口口① |③---|
47
①口口口 |①---|
②口口③ |----|
③口口② |②---|
口口口① |③---|
48
口口③口 |①---|
口③②口 |②---|
口②①口 |③---|
口①口口 |----|
49
口口口① |①---|
③口口② |----|
②口口③ |②---|
①口口口 |③---|
50
口口口① |①---|
③口口② |----|
②口口③ |②---|
①口口口 |③---|
51
口口口① |①---|
③口口② |----|
②口口③ |②---|
①口口口 |③---|
52
口口口④ |①---|
口③③口 |②---|
④②②口 |③---|
口①①口 |④---|


不确定度: 0

最終更新:2012年11月27日 00:48