魁!ミッドナイト
RIKI

EXTREME

Level: 6
BPM: 140
Notes: 376

1
口口口口 |----|
口口口口 |----|
口口口口 |----|
口口口口 |----|
2
①口口② |①---|
③口口④ |②---|
口②①口 |③---|
口④③口 |④---|
3
⑥口口⑥ |①-②-|
口③④口 |③-④-|
①⑤⑤② |⑤---|
口口口口 |⑥---|
4
口②①口 |①---|
口④③口 |②---|
①口口② |③---|
③口口④ |④---|
5
口口口口 |①-②-|
③⑥⑥④ |③-④-|
①⑤⑤② |⑤---|
口口口口 |⑥---|
6
口①②口 |①---|
口③④口 |②---|
②口口① |③---|
④口口③ |④---|
7
口⑥⑥口 |①-②-|
③⑤⑤④ |③-④-|
①口口② |⑤---|
口口口口 |⑥---|
8
②口口① |①---|
④口口③ |②---|
口①②口 |③---|
口③④口 |④---|
9
口口口口 |①-②-|
⑥④③⑥ |③-④-|
②⑤⑤① |⑤---|
口口口口 |⑥---|
10
口②③① |①-②-|
口口口口 |--③-|
口口口口
口②③①

④口口⑤
口口口口
口口口口 |--④-|
④口口⑤ |--⑤-|
11
④①口④ |--①-|
③口口③ |--②-|
②口口② |③-④-|
⑤①口⑤ |⑤---|
12
口④④口 |--①-|
口③③口 |②-③-|
口②②口 |④---|
口①①口 |----|
13
口⑤④口 |--①-|
⑥口口③ |②-③-|
⑦口口② |④-⑤-|
口口①口 |⑥-⑦-|
14
口⑥⑤口 |①-②-|
口口口④ |③-④-|
口口口③ |--⑤-|
口①②口 |⑥---|
15
口④⑤口 |--①-|
口⑥③口 |②-③-|
口②⑦口 |④-⑤-|
口口①口 |⑥-⑦-|
16
口口口⑤ |①-②-|
口口口④ |③-④-|
口口口③ |⑤---|
口①口② |----|
17
口④⑤口 |--①-|
③口口⑥ |②-③-|
②口口⑦ |④-⑤-|
口①口口 |⑥-⑦-|
18
口口口口 |----|
口口口口 |①-②-|
口口口口 |----|
口②①口 |----|
19
口①口口 |--①-|
口⑦②口 |②-③-|
口③⑥口 |④-⑤-|
口⑤④口 |⑥-⑦-|
20
口②①口 |①-②-|
③口口口 |③-④-|
④口口口 |⑤---|
口⑤口口 |----|
21
口口①口 |--①-|
⑦口口② |②-③-|
⑥口口③ |④-⑤-|
口⑤④口 |⑥-⑦-|
22
口①口口 |①-②-|
口②口口 |③-④-|
口③⑥口 |--⑤-|
口④⑤口 |⑥---|
23
口①口口 |--①-|
口⑦②口 |②-③-|
口③⑥口 |④-⑤-|
口⑤④口 |⑥-⑦-|
24
口口①⑤ |①-②-|
口口口④ |③-④-|
口口口③ |⑤---|
口口口② |----|
25
④⑤⑥口 |--①-|
③⑦口口 |②-③-|
②口口口 |④-⑤-|
①口口口 |⑥-⑦-|
26
口口口口 |----|
口口口口 |①-②-|
口②①口 |--③-|
口④③口 |④---|
27
口①口口 |--①-|
口⑦②口 |②-③-|
口③⑥口 |④-⑤-|
口⑤④口 |⑥-⑦-|
28
口口口① |①---|
②口口口 |②-③-|
③口口⑥ |④---|
④口口⑤ |⑤-⑥-|
29
口口口口 |①-②-|
④③②① |③-④-|
口口口口
口口口口

口口口口
口口⑦口
⑤⑥口口 |⑤---|
口口口口 |⑥-⑦-|
30
口口口① |①---|
②口口口 |②-③-|
③口口口 |④---|
④口口⑤ |⑤---|
31
口口口口 |①---|
口②口口 |②---|
口①②口
口口①口

口③口口
口口③口
口口口口 |③---|
口口⑤④ |④-⑤-|
32
口⑤口口 |①---|
⑥口口口 |②-③-|
②③④口 |④---|
口①口口 |⑤-⑥-|
33
口⑦⑥口 |①-②-|
口口口⑤ |③-④-|
①口口④ |⑤---|
口②③口 |⑥-⑦-|
34
①口口口 |①---|
②②②② |②---|
③③③③ |③---|
④④④④ |④---|
35
①①①① |①---|
①①①① |----|
②②②② |②---|
口口口口 |----|
36
⑦⑧口口 |①-②-③-|
⑥⑥⑥⑥ |④-⑤---|
③⑤⑤④ |⑥---|
口①②口 |⑦-⑧-|
37
口口①② |①---|
口口③口 |②-③-|
⑥④口口 |④---|
口⑤口口 |⑤-⑥-|
38
口口口口 |①-②-|
①②③④ |③-④-|
口口口⑤ |⑤---|
口⑥⑦口 |⑥-⑦-|
39
口⑤④口 |①---|
口③②口 |②-③-|
口①口口 |④---|
口口口口 |⑤---|
40
③口⑤④ |①---|
口口口口 |②---|
②③口口 |③---|
口①②① |④-⑤-|
41
②①口口 |①---|
口③口口 |②-③-|
口口④⑥ |④---|
口口⑤口 |⑤-⑥-|
42
口口口口 |①-②-|
④③②① |③-④-|
⑤口口口 |⑤---|
口⑦⑥口 |⑥-⑦-|
43
口口口口 |①---|
④③③④ |②---|
②①①② |③---|
口口口口 |④---|
44
口①①④ |①---|
口③③④ |②---|
④③③口 |③---|
④②②口 |④---|
45
②①①口 |①---|
口③口口 |②-③-|
口口④⑥ |④---|
口口⑤口 |⑤-⑥-|
46
口口口口 |①-②-|
④③②① |③-④-|
⑤口口口 |⑤---|
口⑦⑥口 |⑥-⑦-|
47
口④⑤口 |①---|
口②③口 |②-③-|
口口①口 |④---|
口口口口 |⑤---|
48
④⑤口③ |①---|
口口口口 |②---|
口口③② |③---|
①②①口 |④-⑤-|
49
口口①口 |①---|
口④③② |②-③-|
口口⑥口 |④---|
口口口⑤ |⑤-⑥-|
50
口口口口 |①-②-|
口④⑤口 |③-④-|
③①口口 |⑤---|
②⑥⑦口 |⑥-⑦-|
51
口口口口 |①---|
④③③④ |②---|
②①①② |③---|
口口口口 |④---|
52
口①①④ |①---|
口③③④ |②---|
④③③口 |③---|
④②②口 |④---|


不确定度: 0

最終更新:2012年11月27日 00:48