rose
ANNA inspi' NANA(BLACK STONES)

BASIC

Level: 1
BPM: 172
Notes: 154

1
口口口口 |----|
口口口口 |----|
口口口口 |----|
口口口口 |----|
2
口口口口 |①---|
口口口口 |----|
口②口口 |----|
口①口口 |②---|
3
口口②口 |①---|
口口①口 |----|
口口口口 |-------②|
口口口口 |----|
4
口①口口 |①---|
口②口口 |----|
口口口口 |----|
口口口口 |②---|
5
口口口口 |①---|
口口口口 |----|
口口①口 |----|
口口②口 |②---|
6
口口口口 |①---|
口口口口 |----|
口②口口 |----|
口①口口 |②---|
7
口口②口 |①---|
口口①口 |----|
口口口口 |----|
口口口口 |②---|
8
口①口口 |①---|
口②口口 |----|
口口口口 |----|
口口口口 |②---|
9
口口口口 |①---|
口口口口 |----|
口②①口 |②---|
口口口口 |----|
10
口口口口 |①---|
口口口口 |----|
口口口口 |----|
口①①口 |----|
11
口口口口 |①---|
口口口口 |----|
口①①口 |----|
口口口口 |----|
12
口口口口 |①---|
口①①口 |----|
口口口口 |----|
口口口口 |----|
13
口①①口 |①---|
口口口口 |----|
口口口口 |----|
口口口口 |----|
14
①口口① |①---|
口口口口 |----|
口口口口 |----|
口口口口 |----|
15
口口口口 |①---|
①口口① |----|
口口口口 |----|
口口口口 |----|
16
口口口口 |①---|
口口口口 |----|
①口口① |----|
口口口口 |----|
17
口口口口 |①---|
口口口口 |----|
口口口口 |----|
①口口① |----|
18
①口口口 |①---|
口口口口 |----|
口口口口 |----|
口口口口 |----|
19
口①②口 |①---|
口口口口 |----|
口口口口 |②---|
口口口口 |----|
20
口口口① |①---|
口口口口 |----|
口口口口 |----|
口口口口 |----|
21
口①②口 |①---|
口口口口 |----|
口口口口 |②---|
口口口口 |----|
22
口口口① |①---|
口口口口 |----|
口口口口 |----|
口口口口 |----|
23
口口口口 |①---|
①②口口 |----|
口口口口 |②---|
口口口口 |----|
24
口口口口 |①---|
口口①② |----|
口口口口 |②---|
口口口口 |----|
25
口口口口 |①---|
口②②口 |----|
口①①口 |②---|
口口口口 |----|
26
口口口口 |①---|
口口口口 |----|
口口口① |----|
口口口口 |----|
27
口口口口 |①---|
口口口口 |----|
口②①口 |②---|
口口口口 |----|
28
口口口口 |①---|
口口口口 |----|
①口口口 |----|
口口口口 |----|
29
口口口口 |①---|
口口口口 |----|
口②①口 |②---|
口口口口 |----|
30
口口口口 |①---|
口口口口 |----|
①口口口 |----|
口口口口 |----|
31
口口口口 |①---|
口口口口 |----|
口口口口 |②---|
口口②① |----|
32
口口口口 |①---|
口口口口 |----|
口口口口 |②---|
②①口口 |----|
33
口口口口 |①---|
口口口口 |----|
口②口口 |②---|
口口①口 |----|
34
口口口口 |----|
①口口口 |----|
口口口口 |①---|
口口口口 |----|
35
口口口口 |①---|
口①②口 |----|
口口口口 |②---|
口口口口 |----|
36
口口②口 |①---|
口口口① |----|
口口口口 |②---|
口口口口 |----|
37
口口口口 |①---|
口口①口 |----|
口口②口 |②---|
口口口口 |----|
38
口口口口 |①---|
口口口口 |----|
口口口② |②---|
口口①口 |----|
39
口口口口 |①---|
口口口口 |----|
口②①口 |②---|
口口口口 |----|
40
口口口口 |①---|
口口口口 |----|
①口口口 |----|
口口口口 |----|
41
口口口口 |①---|
口口口口 |----|
口①①口 |----|
口口口口 |----|
42
口①①口 |①---|
②①①口 |----|
口口口口 |②---|
口口口口 |----|
43
口口口口 |①---|
口②②① |----|
口口口口 |②---|
口口口口 |----|
44
口口口口 |①---|
口口口口 |----|
口①①② |②---|
口①①口 |----|
45
口口口口 |①---|
口口口口 |----|
①②②口 |②---|
口口口口 |----|
46
口口口口 |①---|
口④口口 |②---|
口③口口 |③---|
①②口口 |④---|
47
口①口口 |①---|
口口口口 |----|
口口口口 |----|
口口口口 |----|
48
口口②① |①---|
口口③口 |②---|
口口④口 |③---|
口口口口 |④---|
49
口口口口 |①---|
口口口口 |----|
口口口口 |----|
口口①口 |----|
50
口口口口 |①---|
口口口口 |----|
口①①② |②---|
口①①口 |----|
51
口口口口 |①---|
口口口口 |----|
①②②口 |②---|
口口口口 |----|
52
口①①口 |①---|
②①①口 |----|
口口口口 |②---|
口口口口 |----|
53
口口口口 |①---|
口②②① |----|
口口口口 |②---|
口口口口 |----|
54
口口②① |①---|
口口③口 |②---|
口口④口 |③---|
口口口口 |④---|
55
口口口口 |①---|
口口口口 |----|
口口口口 |----|
口口①口 |----|
56
口口口口 |①---|
口口口口 |----|
口口口口 |②---|
①②口口 |----|
57
口③口口 |①---|
口②口口 |②---|
口①口口 |③---|
口口口口 |----|
58
口口①① |①---|
口口②口 |--②-|
口口③口 |--③-|
口口④口 |--④-|
59
口口口口 |----|
口口口口 |----|
口口口口 |----|
口口口口 |----|
60
口④口口 |①---|
口③口口 |--②-|
口②口口 |--③-|
①①口口 |--④-|
61
口口口口 |----|
口口口口 |----|
口口口口 |----|
口口口口 |----|
62
口口①① |①---|
口口②口 |--②-|
口口③口 |--③-|
口口④口 |--④-|
63
口口口口 |----|
口口口口 |----|
口口口口 |----|
口口口口 |----|
64
口④口口 |①---|
口③口口 |--②-|
口②口口 |--③-|
①①口口 |--④-|
65
口口口口 |----|
口口口口 |----|
口口口口 |----|
口口口口 |----|

BPM: 113
66
①口口① |①---|
①口口① |----|
口口口口 |----|
口口口口 |----|
67
口口口口 |----|
口口口口 |----|
口口口口 |----|
口口口口 |----|
68
口口口口 |----|
口口口口 |----|
口口口口 |----|
口口口口 |----|
69
口①①口 |①---|
口①①口 |----|
口口口口 |----|
口口口口 |----|


不确定度: 0

最終更新:2012年11月27日 00:48