rose
ANNA inspi' NANA(BLACK STONES)

ADVANCED

Level: 4
BPM: 172
Notes: 253

1
口口口口 |----|
口口口口 |----|
口口口口 |----|
口口口口 |----|
2
口口口口 |①---|
口口口口 |②---|
口③口口 |----|
②①口口 |③---|
3
口②口口 |①---|
口口①口 |----|
口口口口 |----|
口口口口 |②---|
4
①口口口 |①---|
口②口口 |----|
口口口口 |----|
口口口口 |②---|
5
口口口口 |①---|
口口口口 |----|
口口①口 |----|
口口口② |②---|
6
口口口口 |①---|
口口口口 |----|
口口②口 |----|
口口①口 |②---|
7
口口口② |①---|
口①口口 |----|
口口口口 |----|
口口口口 |②---|
8
口口①口 |①---|
口口②口 |----|
口口口口 |----|
口口口口 |②---|
9
口口口口 |①---|
口口口口 |----|
口①口口 |②---|
②口口② |----|
10
口口口口 |①---|
口口口口 |----|
②口口口 |----|
口①①口 |②---|
11
口口口口 |①---|
口口口② |----|
口①①口 |----|
口口口口 |②---|
12
②口口口 |①---|
口①①口 |----|
口口口口 |----|
口口口口 |②---|
13
口①①口 |①---|
口②②口 |----|
口口口口 |----|
口口口口 |②---|
14
①口口① |①---|
口②口口 |----|
口口口口 |----|
口口口口 |②---|
15
口口口口 |①---|
①口口① |----|
口口②口 |----|
口口口口 |②---|
16
口口口口 |①---|
口口口口 |----|
①口口① |----|
口②口口 |②---|
17
口口口口 |①---|
口口口口 |----|
口口口口 |----|
①口口① |----|
18
口口口口 |----|
口口③口 |①---|
口口②口 |②---|
口口①口 |③---|
19
口口①口 |①---|
④③口② |②---|
口口口口 |③---|
口口口口 |④---|
20
口②口口 |①---|
口③①口 |----|
口口口口 |②---|
口口口口 |③---|
21
口口口口 |①---|
口口口口 |②---|
③①④口 |③---|
口②口口 |④---|
22
口口口② |①---|
口口③口 |----|
口①口口 |②---|
口口口口 |③---|
23
口口口口 |①---|
③口口口 |②---|
口①口口 |③---|
②口④口 |④---|
24
口口口口 |①---|
口②口口 |②---|
口①②口 |----|
口口口口 |----|
25
口口口口 |①---|
②口①② |----|
②①口② |②---|
口口口口 |----|
26
口②①口 |----|
口①②口 |----|
口口口口 |①---|
口口口口 |②---|
27
口口口① |①---|
①口口口 |----|
口②③口 |②---|
口③②口 |③---|
28
口口口口 |①---|
口③②口 |----|
①②③口 |②---|
口口口① |③---|
29
口口①口 |①---|
口③②口 |----|
口②③口 |②---|
口①口口 |③---|
30
②②口口 |①---|
①口③③ |----|
口口口① |②---|
口口口口 |③---|
31
口口口口 |①---|
口口口口 |②---|
①①④④ |③---|
③③②② |④---|
32
③④②② |①---|
①①口口 |②---|
口口口口 |③---|
口口口口 |④---|
33
口口口口 |①---|
口口②① |②---|
③④口口 |③---|
口口口口 |④---|
34
①②口口 |①---|
口②口口 |----|
口口口口 |②---|
口口口口 |----|
35
口口口口 |①---|
口口①② |----|
口口口② |②---|
口口口口 |----|
36
口口口口 |①---|
口口口口 |----|
口口口口 |②---|
口③②① |③---|
37
④口口口 |①---|
③口口口 |②---|
②口口口 |③---|
①口口口 |④---|
38
口口②① |①---|
口口②口 |----|
口口口口 |②---|
口口口口 |----|
39
口口口口 |①---|
②①口口 |----|
②口口口 |②---|
③口口口 |③---|
40
口口口口 |①---|
口口口口 |②---|
口口口④ |③---|
口①②③ |④---|
41
口②②口 |①---|
③口口① |②---|
口④口口 |③---|
口口口口 |④---|
42
口口口口 |①---|
口③口口 |----|
口口②口 |②---|
①①①① |③---|
43
口②①口 |①---|
口口③口 |----|
口口口口 |②---|
口口口口 |③---|
44
口口口口 |①---|
口口口口 |②---|
①①③口 |----|
口口②② |③---|
45
口口口口 |①---|
口口口口 |----|
口口口口 |----|
口①口口 |----|
46
①⑤口口 |①---|
②①口口 |②---|
③②口口 |③---|
④③口口 |④----⑤|
47
口口口口 |----|
口口口口 |----|
口口口口 |----|
口口口口 |----|
48
口口口① |①---|
口口①② |②---|
口口②③ |③---|
口口③④ |④---|
49
口口①口 |①---|
口④口口 |②---|
口口③口 |③---|
②②口口 |④---|
50
①①①① |①---|
口口②口 |----|
口③口口 |②---|
口口口口 |③---|
51
口口口口 |①---|
口口口口 |----|
口口③口 |②---|
口②①口 |③---|
52
口口②② |①---|
①①③口 |②---|
口口口口 |----|
口口口口 |③---|
53
口①口口 |①---|
口口口口 |----|
口口口口 |----|
口口口口 |----|
54
口口④③ |①---|
口口③② |②---|
口口②① |③---|
口口①口 |④---|
55
口口口口 |①---|
口口口口 |----|
口口口口 |----|
口口口① |----|
56
③④口口 |①---|
②③口口 |②---|
①②口口 |③---|
口①口口 |④---|
57
口口口口 |①---|
口口口口 |②---|
口口口口 |③---|
①②③④ |④---|
58
③④④口 |①---|
口②口口 |--②-|
口口①① |--③-|
口口口口 |--④-|
59
口口口① |----|
口口②口 |----|
口口口口 |①---|
口口口口 |②---|
60
口口④口 |①---|
口口口③ |--②-|
①①②口 |--③-|
口口口口 |--④-|
61
①口口口 |----|
口②口口 |----|
口口口口 |①---|
口口口口 |②---|
62
口口口口 |①---|
口④口口 |--②-|
③口①① |--③-|
口②口口 |--④-|
63
口口①口 |----|
口口口② |----|
口口口口 |①---|
口口口口 |②---|
64
口③口口 |①---|
②口④④ |--②-|
口①①口 |--③-|
口口口口 |--④-|
65
口口口口 |----|
口口口口 |①---|
口①口口 |②---|
②口口口 |----|

BPM: 113
66
口口口口 |①---|
口口口口 |----|
口口口口 |----|
口①①① |----|
67
口口口口 |----|
口口口口 |----|
口口口口 |----|
口口口口 |----|
68
口口口口 |----|
口口口口 |----|
口口口口 |----|
口口口口 |----|
69
口口口口 |①---|
口口口口 |----|
①①①① |----|
口口口口 |----|


不确定度: 0

最終更新:2012年11月27日 00:46