rose
ANNA inspi' NANA(BLACK STONES)

EXTREME

Level: 7
BPM: 172
Notes: 452

1
口口口口 |----|
口口口口 |----|
口口口口 |----|
口口口口 |----|
2
①口口口 |①---|
口②③④ |②-③-|
口口口⑤ |--④-|
口口口⑥ |⑤-⑥-|
3
口口口⑥ |①---|
口口口⑤ |②-③-|
口②③④ |--④-|
①口口口 |⑤-⑥-|
4
①口口口 |①---|
口②③④ |②-③-|
口口口⑤ |--④-|
口口口⑥ |⑤-⑥-|
5
口口口⑥ |①---|
口口口⑤ |②-③-|
口②③④ |--④-|
①口口口 |⑤-⑥-|
6
①口口口 |①---|
口②③④ |②-③-|
口口口⑤ |--④-|
口口口⑥ |⑤-⑥-|
7
口口口① |①---|
④③②口 |②-③-|
⑤口口口 |--④-|
⑥口口口 |⑤-⑥-|
8
口口口口 |①---|
⑥⑤④口 |②-③-|
口③②口 |--④-|
口口口① |⑤-⑥-|
9
①②④③ |①-②-|
口口口口 |③-④-|
口⑤⑤口 |⑤-⑥-|
口⑥⑥口 |----|
10
口口口口 |①---|
①①①① |②-③-|
②③④⑤ |④-⑤-|
口口⑦⑥ |⑥-⑦-|
11
⑤⑥⑦⑧ |①-②-|
④口口口 |③-④-|
③口口口 |⑤-⑥-|
②①口口 |⑦-⑧-|
12
口口口口 |①-②-|
口②口① |③-④-|
口④⑧③ |⑤-⑥-|
口⑥⑦⑤ |⑦-⑧-|
13
④③②口 |①-②-|
⑤口①口 |③-④-|
⑥口口口 |⑤-⑥-|
⑦⑧口口 |⑦-⑧-|
14
⑥④②① |①---|
口口口① |②-③-|
⑦⑤③口 |④-⑤-|
口口口口 |⑥-⑦-|
15
口口口口 |①-②-|
①③⑤⑦ |③-④-|
口口口口 |⑤-⑥-|
②④⑥⑧ |⑦-⑧-|
16
口口口口 |①-②-|
⑤⑥⑦⑧ |③-④-|
④③②① |⑤-⑥-|
口口口口 |⑦-⑧-|
17
④③②① |①-②-|
⑤口口口 |③-④-|
⑥口口口 |⑤-⑥-|
⑦⑧口口 |⑦-⑧-|
18
①②口口 |----|
口④③口 |①-②-|
口口口口 |----|
口口口口 |③-④-|
19
口口口口 |----|
口口口口 |①---|
口①②③ |②-③-|
口④④口 |--④-|
20
口②口④ |----|
①口③⑤ |--①-|
口口口口 |②-③-|
口口口口 |④-⑤-|
21
口口口口 |----|
口口口口 |①---|
①②③④ |②-③-|
①②③④ |--④-|
22
④口②口 |----|
⑤③口① |--①-|
口口口口 |②-③-|
口口口口 |④-⑤-|
23
口口口口 |--①-|
口口口口 |--②-|
④③②① |--③-|
④③②① |--④-|
24
①口口口 |--①-|
①口口口 |----|
口口口口 |----|
口口口口 |----|
25
口口口口 |①-②-|
②③③② |----|
①④④① |③-④-|
口口口口 |----|
26
口口口④ |----|
口口口③ |--①-|
口口口② |②-③-|
口口口① |--④-|
27
口口①口 |----|
口③②口 |①-②-|
口④口口 |③-④-|
⑤口口口 |--⑤-|
28
①口口口 |----|
②口口口 |--①-|
③口口口 |②-③-|
④口⑤口 |④-⑤-|
29
口④口④ |----|
口③口③ |①---|
口②口② |②-③-|
口①口① |--④-|
30
口口①口 |----|
口口②口 |--①-|
口口③口 |②-③-|
⑤口④口 |④-⑤-|
31
②口口口 |--①-|
口③③口 |--②-|
①口④口 |--③-|
口④口口 |--④-|
32
口口口口 |--①-|
口口口口 |----|
口①口口 |----|
口口①口 |----|
33
口①口口 |①-②-|
口③②口 |③-④-|
口⑤④口 |⑤-⑥-|
口⑦⑥口 |⑦---|
34
口③③口 |①-②-|
②④口② |----|
①口⑤① |③-④-|
口⑥口口 |⑤-⑥-|
35
口口口口 |--①-|
口口口口 |--②-|
口②口口 |----|
口口①口 |----|
36
口⑤口口 |①---|
口口④口 |----|
口③口口 |②-③-|
①口②① |④-⑤-|
37
口口①口 |--①-|
口②口口 |--②-|
口口③口 |--③-|
口④口口 |④---|
38
①口②① |①---|
口④③口 |--②-|
口⑤⑥口 |③-④-|
口口口口 |⑤-⑥-|
39
口口口口 |--①-|
口口口口 |--②-|
口③口口 |----|
口②①口 |③---|
40
口口口口 |①---|
口口口口 |----|
口口①口 |②---|
②口口② |----|
41
⑤口口⑤ |①-②-|
④①①④ |③---|
③②②③ |④---|
口口口口 |⑤---|
42
口①①口 |①-②-|
口①①口 |③-④-|
口②②口
④③③④

⑦⑧⑧⑦
⑥口口⑥
⑤口口⑤ |⑤-⑥-|
口口口口 |⑦-⑧-|
43
④口口④ |①---|
③①①③ |②---|
口口口口 |③---|
②口口② |④---|
44
口①②口 |①-②-|
口③④口 |③-④-|
口⑦⑧口 |⑤-⑥-|
口⑤⑥口 |⑦-⑧-|
45
口①①口 |①---|
口口口口 |----|
口口口口 |----|
口②②口 |②---|
46
②①①② |①-②-|
④③③④ |③-④-|
⑥⑤⑤⑥ |⑤-⑥-|
⑧⑦⑦⑧ |⑦-⑧-|
47
①②②① |①---|
口口口口 |----|
口口口口 |----|
口口口口 |②---|
48
⑧⑦⑦⑧ |①-②-|
⑥⑤⑤⑥ |③-④-|
④③③④ |⑤-⑥-|
②①①② |⑦-⑧-|
49
口④口④ |①---|
③口③口 |②---|
口②口② |③---|
①口口① |④---|
50
①口①口 |①-②-|
口②口② |③-④-|
口③口③
口④口④

⑧口⑧口
⑦口⑦口
⑥口⑥口 |⑤-⑥-|
⑤口⑤口 |⑦-⑧-|
51
口①口① |①---|
口②口② |②---|
口③口③ |③---|
口④口④ |④---|
52
①口②口 |①-②-|
③口④口 |③-④-|
⑦口⑧口 |⑤-⑥-|
⑤口⑥口 |⑦-⑧-|
53
①口①口 |①---|
②③③② |----|
口口口口 |②---|
口口口口 |③---|
54
①②②① |①---|
③④④③ |②---|
口⑤⑤口 |③---|
口口口口 |④-⑤-|
55
口口口口 |①---|
口口口口 |----|
口口口口 |----|
②①①② |②---|
56
口口口口 |①---|
口口口口 |----|
②口口② |②---|
口①①口 |----|
57
口口口口 |①---|
⑤口口⑤ |②---|
④②③④ |③---|
口①①口 |④-⑤-|
58
口⑤⑥⑥ |①-②-|
口口④口 |③-④-|
口③口口 |--⑤-|
口①②口 |--⑥-|
59
口口口口 |--①-|
②①口口 |②-③-|
③口口口 |④---|
④⑤口口 |⑤---|
60
⑥⑥⑤口 |①-②-|
口④口口 |③-④-|
口口③口 |--⑤-|
口口②① |--⑥-|
61
口口口口 |--①-|
②③④⑤ |②-③-|
①口口口 |④---|
口口口口 |⑤---|
62
⑥⑥⑤⑤ |①-②-|
口④口口 |③-④-|
口③口口 |--⑤-|
①②口口 |--⑥-|
63
口口口口 |--①-|
⑤④③② |②-③-|
口口口① |④---|
口口口口 |⑤---|
64
⑤⑤⑥⑥ |①-②-|
口口④口 |③-④-|
口口③口 |--⑤-|
口口②① |--⑥-|
65
口口口口 |--①-|
①②③④ |②-③-|
口⑤⑤口 |④-⑤-|
口口口口 |----|

BPM: 113
66
口口口口 |①---|
口口口口 |----|
口口口口 |----|
①①①① |----|
67
口口口口 |----|
口口口口 |----|
口口口口 |----|
口口口口 |----|
68
口口口口 |----|
口口口口 |----|
口口口口 |----|
口口口口 |----|
69
口口口口 |①---|
口口口口 |----|
①①①① |----|
口口口口 |----|


不确定度: 0

最終更新:2012年11月27日 00:46