気分上々↑↑
mihimaru GT

BASIC

Level: 3
BPM: 125
Notes: 266

1
口口口口 |----|
口口口口 |----|
口口口口 |----|
口口口口 |----|
2
口口口⑤ |①---|
口口口④ |②---|
口①②③ |③--④|
口口口口 |--⑤-|
3
⑤口口口 |①---|
④口口口 |②---|
③②①口 |③--④|
口口口口 |--⑤-|
4
口①②口 |①---|
口③④口 |②---|
口口口口 |③---|
口口口口 |④---|
5
口口口口 |①---|
口口口口 |②---|
口①②口 |③---|
口③④口 |④---|
6
口口口⑤ |①---|
口口口④ |②---|
口①②③ |③--④|
口口口口 |--⑤-|
7
⑤口口口 |①---|
④口口口 |②---|
③②①口 |③--④|
口口口口 |--⑤-|
8
口口口口 |--①-|
口①②口 |----|
口口口口 |②---|
口口口口 |----|
9
①口口① |①---|
②口口② |②---|
③口口③ |③---|
④口口④ |④---|
10
③口口④ |①---|
口②②口 |②---|
口①①口 |③---|
口口口口 |④---|
11
口口口口 |①---|
①口口② |②---|
③口口④ |③---|
口口口口 |④---|
12
口①②口 |①---|
口③④口 |②---|
口口口口 |③---|
口口口口 |④---|
13
口口口口 |①---|
口口口口 |②---|
④①②④ |③---|
口③③口 |④---|
14
口口口口 |①---|
①②④③ |②---|
口口口口 |③---|
口口口口 |④---|
15
口口口口 |①---|
口口口口 |②---|
①②④③ |③---|
口口口口 |④---|
16
口口口口 |①---|
口口口口 |----|
口②②口 |②---|
口①①口 |----|
17
①口口① |①---|
②口口② |②---|
③口口③ |③---|
④口口④ |④---|
18
口口口口 |①---|
②①③④ |②---|
口口口口 |③---|
口口口口 |④---|
19
口口口口 |①---|
口口口口 |②---|
②①③④ |③---|
口口口口 |④---|
20
①②④③ |①---|
口口口口 |②---|
口口口口 |③---|
口口口口 |④---|
21
口口口口 |①---|
口①①口 |----|
口②②口 |②---|
口③③口 |③---|
22
①③④② |①---|
口口口口 |②---|
口口口口 |③---|
口口口口 |④---|
23
口口口口 |①---|
①③④② |②---|
口口口口 |③---|
口口口口 |④---|
24
口口口口 |①---|
口口口口 |②---|
①③④② |③---|
口口口口 |④---|
25
口口口口 |①---|
口口口口 |②---|
口口口口 |③---|
①③④② |④---|
26
口口口口 |①---|
口②②口 |----|
口①①口 |②---|
口口口口 |----|
27
口①①口 |①---|
②口口② |②---|
③口口③ |③---|
口④⑤口 |④-⑤-|
28
口口口⑤ |①---|
口口口④ |②---|
口①②③ |③--④|
口口口口 |--⑤-|
29
⑤口口口 |①---|
④口口口 |②---|
③②①口 |③--④|
口口口口 |--⑤-|
30
口口口口 |①---|
③①②④ |②---|
口口口口 |③---|
口口口口 |④---|
31
口口口口 |①---|
口口口口 |②---|
③①②④ |③---|
口口口口 |④---|
32
口口口⑤ |①---|
口口口④ |②---|
口①②③ |③--④|
口口口口 |--⑤-|
33
⑤口口口 |①---|
④口口口 |②---|
③②①口 |③--④|
口口口口 |--⑤-|
34
口口口口 |--①-|
口口口口 |----|
口①②口 |②---|
口口口口 |----|
35
①口口① |①---|
②口口② |②---|
③口口③ |③---|
④口口④ |④---|
36
口④④口 |①---|
口③③口 |②---|
口②②口 |③---|
口①①口 |④---|
37
口口口口 |①---|
①口口② |②---|
③口口④ |③---|
口口口口 |④---|
38
口④口口 |①---|
口口③口 |②---|
口②口口 |③---|
口口①口 |④---|
39
口口口口 |①---|
①口口① |②---|
②口口②
口口口口

口口口口
④口口⑤
口口口口 |③---|
③口口③ |④-⑤-|
40
口口口⑤ |①---|
口口口④ |②---|
口①②③ |③--④|
口口口口 |--⑤-|
41
口①口口 |①---|
口口②口 |②---|
口③口口 |③---|
口口④口 |④---|
42
⑤口口口 |①---|
④口口口 |②---|
③②①口 |③--④|
口口口口 |--⑤-|
43
口口①口 |①---|
口②口口 |②---|
口口③口 |③---|
口④口口 |④---|
44
口口口⑤ |①---|
口口口④ |②---|
口①②③ |③--④|
口口口口 |--⑤-|
45
口①口口 |①---|
口口②口 |②---|
口③口口 |③---|
口口④口 |④---|
46
⑤口口口 |①---|
④口口口 |②---|
③②①口 |③--④|
口口口口 |--⑤-|
47
口口①口 |①---|
口②口口 |②---|
口口③口 |③---|
口④口口 |④---|
48
口口口⑤ |①---|
口口口④ |②---|
口①②③ |③--④|
口口口口 |--⑤-|
49
口①口口 |①---|
口口②口 |②---|
口③口口 |③---|
口口④口 |④---|
50
⑤口口口 |①---|
④口口口 |②---|
③②①口 |③--④|
口口口口 |--⑤-|
51
口口①口 |①---|
口②口口 |②---|
口口③口 |③---|
口④口口 |④---|
52
口口口③ |①---|
口口口④ |②---|
口①②⑤ |③--④|
口口口口 |--⑤-|
53
口口口口 |①---|
③①②④ |②---|
口口口口 |③---|
口口口口 |④---|
54
③口口口 |①---|
④口口口 |②---|
⑤②①口 |③--④|
口口口口 |--⑤-|
55
口口口口 |①---|
口①①口 |----|
③②②④ |②---|
口口口口 |③-④-|
56
口①①口 |----|
口②②口 |----|
口③③口 |①--②|
口口口口 |--③-|


不确定度: 0

最終更新:2012年11月27日 00:45