気分上々↑↑
mihimaru GT

ADVANCED

Level: 4
BPM: 125
Notes: 316

1
口口口口 |----|
口口口口 |----|
口口口口 |----|
口口口口 |----|
2
口口⑤口 |①---|
口口口④ |②---|
口口③口 |③--④|
①②口口 |--⑤-|
3
口⑤口口 |①---|
④口口口 |②---|
口③口口 |③--④|
口口②① |--⑤-|
4
口④口口 |①---|
口口③口 |②---|
口②口口 |③---|
口口①口 |④---|
5
①口口口 |①---|
口②口口 |②---|
口口③口 |③---|
口口口④ |④---|
6
口口⑤口 |①---|
口口口④ |②---|
口口③口 |③--④|
①②口口 |--⑤-|
7
口⑤口口 |①---|
④口口口 |②---|
口③口口 |③--④|
口口②① |--⑤-|
8
口口口口 |--①-|
口②①口 |----|
口②①口 |②---|
口口口口 |----|
9
口①①口 |①---|
②口口② |②---|
③口口③ |③---|
口④④口 |④---|
10
③口口④ |①---|
②②②② |②---|
口①①口 |③---|
口口口口 |④---|
11
口①②口 |①---|
③口口④ |②---|
口口口口 |③---|
口口口口 |④---|
12
口口口口 |①---|
口①②口 |②---|
③口口④ |③---|
口口口口 |④---|
13
口口口口 |①---|
口④④口 |②---|
口①②口 |③---|
口③③口 |④---|
14
口口②① |①---|
③口口口 |②---|
④③口口 |③---|
口④口口 |④---|
15
①②口口 |①---|
口口口③ |②---|
口口③④ |③---|
口口④口 |④---|
16
口口口口 |①---|
②①①② |----|
口口口口 |②---|
口口口口 |----|
17
口①口① |①---|
②口②口 |②---|
口③口③ |③---|
④口④口 |④---|
18
口口②① |①---|
③口口口 |②---|
④③口口 |③---|
口④口口 |④---|
19
①②口口 |①---|
口口口③ |②---|
口口③④ |③---|
口口④口 |④---|
20
②①①② |①---|
③口口③ |②---|
④口口④ |③---|
口口口口 |④---|
21
口口口口 |①---|
口口口口 |②---|
④③③④ |③---|
①②②① |④---|
22
①口①口 |①---|
口②口② |②---|
③口③口 |③---|
口④口④ |④---|
23
口①口① |①---|
②口②口 |②---|
口③口③ |③---|
④口④口 |④---|
24
①口口② |①---|
③①②④ |②---|
口③④口 |③---|
口口口口 |④---|
25
③口③口 |①---|
口④口④ |②---|
①口口② |③---|
口①②口 |④---|
26
口口口口 |①---|
口③③口 |②---|
①口①口 |③---|
口②口② |----|
27
口口口口 |①---|
口口口口 |----|
口①①口
口口口口

口口口口
③口口④
口③④口 |②---|
口②②口 |③-④-|
28
口口⑤口 |①---|
口口口④ |②---|
口口③口 |③--④|
①②口口 |--⑤-|
29
口⑤口口 |①---|
④口口口 |②---|
口③口口 |③--④|
口口②① |--⑤-|
30
口④口口 |①---|
口口③口 |②---|
口②口口 |③---|
口口①口 |④---|
31
①口口口 |①---|
口②口口 |②---|
口口③口 |③---|
口口口④ |④---|
32
口口⑤口 |①---|
口口口④ |②---|
口口③口 |③--④|
①②口口 |--⑤-|
33
口⑤口口 |①---|
④口口口 |②---|
口③口口 |③--④|
口口②① |--⑤-|
34
口口口口 |--①-|
口①③口 |②---|
口②④口 |③-④-|
口口口口 |----|
35
口口口口 |①---|
口口口口 |②---|
③④④③ |③---|
②①①② |④---|
36
②口口② |①---|
口①①口 |②---|
口口口口
口口口口

口口口口
③④口口
口口口口 |③---|
口口口口 |④---|
37
口口口口 |①---|
口口②① |②---|
③④口口 |③---|
口口口口 |④---|
38
③④④③ |①---|
口口口口 |②---|
口口②① |③---|
口口口口 |④---|
39
口口口口 |①---|
口①①口 |②---|
口②②口
口口口口

④口口⑤
口④⑤口
口口口口 |③---|
口③③口 |④-⑤-|
40
口口⑤口 |①---|
口口口④ |②---|
口口③口 |③--④|
①②口口 |--⑤-|
41
口口口口 |①---|
①口口③ |②---|
口②④口 |③---|
口口口口 |④---|
42
口⑤口口 |①---|
④口口口 |②---|
口③口口 |③--④|
口口②① |--⑤-|
43
口口口口 |①---|
口口口口 |②---|
①口口② |③---|
口③④口 |④---|
44
口口⑤口 |①---|
口口口④ |②---|
口口③口 |③--④|
①②口口 |--⑤-|
45
口口口口 |①---|
口①②口 |②---|
③口口④ |③---|
口口口口 |④---|
46
口口⑤口 |①---|
口口口④ |②---|
口口③口 |③--④|
①②口口 |--⑤-|
47
口口口口 |①---|
口口口口 |②---|
①口口② |③---|
口③④口 |④---|
48
口口⑤口 |①---|
口口口④ |②---|
口口③口 |③--④|
①②口口 |--⑤-|
49
口口口口 |①---|
口①②口 |②---|
③口口④ |③---|
口口口口 |④---|
50
口⑤口口 |①---|
④口口口 |②---|
口③口口 |③--④|
口口②① |--⑤-|
51
①口口② |①---|
口③④口 |②---|
口口口口 |③---|
口口口口 |④---|
52
口口口⑤ |①---|
口口④口 |②---|
口口口③ |③--④|
②①口口 |--⑤-|
53
口口口口 |①---|
①口口② |②---|
口③④口 |③---|
口口口口 |④---|
54
⑤口口口 |①---|
口④口口 |②---|
③口口口 |③--④|
口口①② |--⑤-|
55
口口口口 |①---|
④③③⑤ |②---|
②④⑤② |③---|
口①①口 |④-⑤-|
56
①①①① |----|
②②②② |----|
③③③③ |①--②|
口口口口 |--③-|


不确定度: 0

最終更新:2012年11月27日 00:45