気分上々↑↑
mihimaru GT

EXTREME

Level: 5
BPM: 125
Notes: 407

1
口口口口 |----|
口口口口 |----|
口口口口 |----|
口口口口 |----|
2
口口口⑤ |①---|
口口⑤④ |②---|
口口④③ |③--④|
①②③口 |--⑤-|
3
⑤口口口 |①---|
④⑤口口 |②---|
③④口口 |③--④|
口③②① |--⑤-|
4
④②①③ |①---|
口口口口 |②---|
口口口口 |③---|
口口口口 |④---|
5
口口口口 |①---|
②④③① |②---|
口口口口 |③---|
口口口口 |④---|
6
口口口⑤ |①---|
口口⑤④ |②---|
口口④③ |③--④|
①②③口 |--⑤-|
7
⑤口口口 |①---|
④⑤口口 |②---|
③④口口 |③--④|
口③②① |--⑤-|
8
③口口① |--①-|
④③①② |②---|
口④②口 |③-④-|
口口口口 |----|
9
④口口① |①---|
③口口② |②---|
②口口③ |③---|
①口口④ |④---|
10
③口口③ |①---|
②②②② |②---|
口①①口 |③---|
口④④口 |④---|
11
③④④③ |①---|
口②②口 |②---|
①口口① |③---|
口口口口 |④---|
12
口口口口 |①---|
②口口① |②---|
④②①③ |③---|
口④③口 |④---|
13
口口口口 |①---|
口②②口 |②---|
口①①口
口口口口

口③③口
④口口④
口④④口 |③---|
口口口口 |④---|
14
①口口口 |①---|
口③口口 |②---|
口口④口 |③---|
口口口② |④---|
15
口口口① |①---|
口口③口 |②---|
口④口口 |③---|
②口口口 |④---|
16
④口口④ |①---|
③口口③ |②---|
②口口② |③---|
①口口① |④---|
17
口②③④ |①---|
口①口口 |②---|
口口①口 |③---|
④③②口 |④---|
18
①口口口 |①---|
口③口口 |②---|
口口④口 |③---|
口口口② |④---|
19
口口口① |①---|
口口③口 |②---|
口④口口 |③---|
②口口口 |④---|
20
④口口④ |①---|
③口口③ |②---|
②口口② |③---|
①口口① |④---|
21
口口口口 |①---|
口①①口 |----|
口①①口
口口口口

口口口口
口口口口
③③③③ |②---|
口②②口 |③---|
22
①口口③ |①---|
④口口② |②---|
口口口口 |③---|
口口口口 |④---|
23
口口口口 |①---|
口口口口 |②---|
①口口③ |③---|
④口口② |④---|
24
口口口口 |①---|
口口口口 |②---|
口②②口
口①①口

④口口④
口③③口
口⑤⑤口 |③---|
口口口口 |④-⑤-|
25
口②②口 |--①-|
口①①口 |--②-|
口口口口
口口口口

③口口③
口④④口
⑤口口⑤ |--③-|
口口口口 |④-⑤-|
26
口口口口 |--①-|
口③③口 |----|
口②②口 |②---|
口①①口 |③---|
27
①口口① |①---|
②口口② |②---|
口口口口
口口口口

④口口⑤
口④⑤口
③③③③ |③---|
口口口口 |④-⑤-|
28
口口口⑤ |①---|
口口⑤④ |②---|
口口④③ |③--④|
①②③口 |--⑤-|
29
⑤口口口 |①---|
④⑤口口 |②---|
③④口口 |③--④|
口③②① |--⑤-|
30
口①①口 |①---|
口③③口 |②---|
②口口② |③---|
④口口④ |④---|
31
口①④口 |①---|
口②③口 |②---|
口③②口 |③---|
口④①口 |④---|
32
口口口⑤ |①---|
口口⑤④ |②---|
②口④③ |③--④|
①口③口 |--⑤-|
33
⑤口口口 |①---|
④⑤口口 |②---|
③④口② |③--④|
口③口① |--⑤-|
34
口口口口 |--①-|
③口口④ |②---|
①③④② |③-④-|
口①②口 |----|
35
①口口① |①---|
口②②口 |②---|
③口口③ |③---|
口④④口 |④---|
36
②②②② |①---|
口口口口 |②---|
③①①④ |③---|
口口口口 |④---|
37
口口口口 |①---|
①③④② |②---|
口口口口 |③---|
口口口口 |④---|
38
①口口④ |①-②-|
②口口⑤ |③---|
③口口⑥ |④-⑤-|
口口口口 |⑥---|
39
口口口口 |①---|
口①①口 |②---|
口②②口
口口口口

④口口⑤
口④⑤口
口口口口 |③---|
口③③口 |④-⑤-|
40
口口口⑤ |①---|
口口⑤④ |②---|
口②④③ |③--④|
①口③口 |--⑤-|
41
①②③口 |①-②-|
口⑥⑤④ |③---|
口口口口 |④-⑤-|
口口口口 |⑥---|
42
⑤口口口 |①---|
④⑤口口 |②---|
③④②口 |③--④|
口③口① |--⑤-|
43
口③②① |①-②-|
④⑤⑥口 |③---|
口口口口 |④-⑤-|
口口口口 |⑥---|
44
口口口⑤ |①---|
口口⑤④ |②---|
②口④③ |③--④|
口①③口 |--⑤-|
45
口①④口 |①-②-|
口②⑤口 |③---|
口③⑥口 |④-⑤-|
口口口口 |⑥---|
46
⑤口口口 |①---|
④⑤口口 |②---|
③④口② |③--④|
口③①口 |--⑤-|
47
口④①口 |①-②-|
口⑤②口 |③---|
口⑥③口 |④-⑤-|
口口口口 |⑥---|
48
口口口⑤ |①---|
口口⑤④ |②---|
②口④③ |③--④|
口①③口 |--⑤-|
49
①②③口 |①-②-|
口⑥⑤④ |③---|
口口口口 |④-⑤-|
口口口口 |⑥---|
50
⑤口口口 |①---|
④⑤口口 |②---|
③④口② |③--④|
口③①口 |--⑤-|
51
口③②① |①-②-|
④⑤⑥口 |③---|
口口口口 |④-⑤-|
口口口口 |⑥---|
52
口口口⑤ |①---|
口口⑤④ |②---|
口②④③ |③--④|
①口③口 |--⑤-|
53
①②③口 |①-②-|
口⑥⑤④ |③---|
口口口口 |④-⑤-|
口口口口 |⑥---|
54
⑤口口口 |①---|
④⑤口口 |②---|
③④②口 |③--④|
口③口① |--⑤-|
55
口③②① |①-②-|
口口口口 |③---|
口口口口
口口口口

⑤口口⑤
口④④口
口口口口 |----|
口口口口 |④-⑤-|
56
③③③③ |----|
②③③② |----|
①②②① |①--②|
口①①口 |--③-|


不确定度: 0

最終更新:2012年11月27日 00:45