風になりたい
THE BOOM

BASIC

Level: 2
BPM: 69-109
Notes: 113

BPM: 88
1
口口口口 |----|
口口口口 |----|
口口口口 |----|
口口口口 |----|

BPM: 94
2
口口口口 |----|
口口口口 |----|
口口口口
口口口口

BPM: 69.5
口口口口
口口口口
口口口口 |----|
口口口口 |----|
3
口口口口 |----|
口口口口 |----|
口口口口
口口口口

BPM: 88
口口口口
口口口口
口口口口 |----|
口口口口 |----|
4
口口口口 |----|
口口口口 |----|
口口口口
口口口口

BPM: 103
口口口口
口口口口
口口口口 |----|
口口口口 |----|

BPM: 86
5
口口口口 |①---|
①口口口 |----|
口口口口 |----|
口口口口 |----|

BPM: 90
6
口口口口 |①---|
口①口口 |----|
口口口口 |----|
口口口口 |----|

BPM: 94
7
口口口口 |①---|
口口①口 |----|
口口口口 |----|
口口口口 |----|

BPM: 92
8
口口口口 |①---|
口口口① |----|
口口口口 |----|
口口口口 |----|

BPM: 90
9
口口口口 |①---|
口口口口 |----|
①口口口 |----|
口口口口 |----|
10
口口口口 |①---|
口口口口 |----|
口①口口 |----|
口口口口 |----|

BPM: 107
11
口口口口 |①---|
口口口口 |----|
口口①口 |----|
口口口口 |----|

BPM: 109
12
口口口口 |①---|
口口口口 |----|
口口口① |----|
口口口口

BPM: 105
口口口口
口口口口
口口口口
口口口口 |----|

BPM: 106.5
13
口口口口 |①---|
口口口口 |----|
口口口口 |----|
①口口口 |----|

BPM: 106
14
口口口口 |①---|
口口口口 |----|
①口口① |----|
口口口口 |----|
15
口口口口 |①---|
①口口① |----|
口口口口 |----|
口口口口 |----|
16
口口口口 |①---|
口口口口 |----|
口①①口 |----|
口口口口 |----|
17
口口口口 |①---|
口①①口 |----|
口口口口 |----|
口口口口 |----|

BPM: 105
18
口口口口 |①---|
①口口① |----|
口口口口 |----|
口口口口 |----|

BPM: 106
19
①口口① |①---|
口口口口 |----|
口口口口 |----|
口口口口 |----|
20
口口口口 |①---|
口口口口 |----|
①口口① |----|
口口口口 |----|
21
口口口口 |①---|
口口口口 |----|
口口口口 |----|
①口口① |----|
22
口口口口 |①---|
口口口口 |----|
①口口① |----|
口口口口 |----|
23
口口口口 |①---|
①口口② |----|
口口口口 |②---|
口口口口 |----|
24
口口口口 |①---|
口口口口 |----|
①口口② |②---|
口口口口 |----|
25
口口口口 |①---|
口口口口 |----|
口口口口 |②---|
①口口② |----|
26
口口口口 |①---|
口口口口 |----|
①口口② |②---|
口口口口 |----|
27
口口口口 |①---|
①口口① |----|
②口口② |②---|
口口口口 |----|
28
口口口口 |①---|
口②②口 |----|
口口口口 |②---|
①口口① |----|
29
①口口口 |①---|
②口口① |----|
口口口② |②---|
口口口口 |----|
30
口口口口 |①---|
②口口② |----|
①口口口 |②---|
口口口① |----|
31
①口口② |①---|
③口口④ |②---|
口口口口 |③---|
口口口口 |④---|
32
口口口口 |①---|
口口口口 |②---|
①口口② |③---|
③口口④ |④---|
33
口①②口 |①---|
口③④口 |②---|
口口口口 |③---|
口口口口 |④---|
34
口口口口 |①---|
口口口口 |②---|
口①②口 |③---|
口③④口 |④---|
35
①口口口 |①---|
口②③口 |----|
口口口① |②---|
口口口口 |③---|
36
口口口① |①---|
①口口② |----|
③口口口 |②---|
口口口口 |③---|
37
口口口② |①---|
口①①口 |----|
口口口口 |②---|
口口口③ |③---|
38
口②口口 |①---|
口口口口 |----|
口①①口 |②---|
口③口口 |③---|
39
口口口口 |①---|
②口①口 |----|
口①口③ |②---|
口口口口 |③---|
40
口口口② |①---|
口①口口 |----|
口口①口 |②---|
③口口口 |③---|
41
②口口口 |①---|
口口口① |----|
①口口口 |②---|
口口口③ |③---|
42
口口①① |①---|
口②②口 |----|
口口口口 |②---|
③口口口 |③---|
43
口口口③ |①---|
口口口口 |----|
①①口口 |②---|
口②②口 |③---|
44
③③口口 |①---|
口②②口 |----|
口口①① |②---|
口口口口 |③---|
45
口口口口 |①---|
口口口口 |----|
①口口① |----|
口口口口 |----|


不确定度: 0

最終更新:2012年11月27日 00:45