逆ナンされたのにドタキャン!!
good-cool ft. すわひでお

BASIC

Level: 4
BPM: 194
Notes: 232

1
口口口口 |----|
口口口口 |----|
口口口口 |----|
口口口口 |----|
2
口口口口 |①---|
口②②口 |----|
①口口口 |----|
口口口口 |--②-|
3
口口口口 |----|
口①①口 |----|
口口口口 |----|
口口口口 |--①-|
4
口口口口 |----|
口口口口 |----|
口口口口 |----|
口口口口 |----|
5
口口口口 |①---|
口②②口 |----|
口口口① |----|
口口口口 |--②-|
6
口口口口 |----|
口口口口 |----|
口口口口 |----|
口口口口 |----|
7
口口口口 |①---|
口②②口 |----|
①口口口 |----|
口口口口 |--②-|
8
口口口口 |----|
口口口口 |----|
口口口口 |----|
口口口口 |----|
9
口口口口 |①---|
口②②口 |----|
口口口① |----|
口口口口 |--②-|
10
口口口口 |----|
口口口口 |----|
口口口口 |----|
口口口口 |----|
11
口口口口 |①---|
①②③口 |②---|
口口口口 |③---|
口口口口 |----|
12
口口口口 |----|
①口口口 |----|
口口口口 |--①-|
口口口口 |----|
13
口口口口 |①---|
口①②③ |--②-|
口口口口 |----|
口口口口 |③---|
14
口口口口 |----|
口口口口 |----|
口口口① |--①-|
口口口口 |----|
15
口口口口 |①---|
口口口口 |--②-|
③②①口 |----|
口口口口 |③---|
16
口①口口 |----|
口口口口 |----|
口口口口 |--①-|
口口口口 |----|
17
口口口口 |①---|
口①口口 |--②-|
口②③口 |--③-|
口口口口 |----|
18
口口口口 |①---|
口②②① |----|
口口口口 |----|
口口口口 |--②-|
19
口口口口 |----|
口口口口 |--①-|
口①①口 |----|
口口口口 |----|
20
口口口口 |----|
①口口口 |----|
口口口口 |--①-|
口口口口 |----|
21
口口口口 |①---|
口①②③ |--②-|
口口口口 |----|
口口口口 |③---|
22
口口口口 |----|
口口口口 |----|
口口口① |--①-|
口口口口 |----|
23
口口口口 |①---|
口口口口 |--②-|
③②①口 |----|
口口口口 |③---|
24
口①口口 |----|
口口口口 |----|
口口口口 |--①-|
口口口口 |----|
25
口口口口 |①---|
口①口口 |--②-|
口②③口 |--③-|
口口口口 |----|
26
口口口口 |①---|
口②②口 |----|
口口口口 |----|
①口口① |--②-|
27
①口口① |----|
口口口口 |--①-|
②口口口 |----|
口口口口 |②---|
28
口口口口 |①---|
口④④口 |②---|
口①②③ |③---|
口口口口 |--④-|
29
口口口口 |----|
口口口口 |----|
口口口① |----|
口口口口 |①---|
30
口口口口 |①---|
口口口口 |②---|
③②①口 |③---|
口口口口 |----|
31
①口口① |①---|
口口口口 |----|
口口口口 |----|
②口口口 |②---|
32
口口口口 |①---|
口④④口 |②---|
口口口口 |③---|
口①②③ |--④-|
33
①口口① |----|
口口口口 |①---|
口口口② |----|
口口口口 |②---|
34
口口口口 |①---|
④口口口 |②---|
③②①口 |③---|
口口口口 |④---|
35
口口①② |①---|
口口①② |②---|
口口口口 |----|
口口口口 |----|
36
口口口口 |①---|
口口口口 |②---|
①②③④ |③---|
口口口口 |④---|
37
②口口③ |①---|
口①①口 |--②-|
口口口口 |--③-|
口口口口 |----|
38
口口口口 |①---|
①②③④ |②---|
口口口口 |③---|
口口口口 |④---|
39
口口口口 |①---|
口口口口 |②---|
口①②口 |----|
口口口口 |----|
40
口口口口 |①---|
①口口② |②---|
口口口③ |----|
口口口口 |③---|
41
口口口口 |①---|
口口口口 |②---|
③②①口 |③---|
口口口口 |----|
42
口口口口 |①---|
口口口口 |----|
口②②口 |②---|
口①①口 |----|
43
口②②口 |①---|
口①①口 |----|
口口口口 |②---|
口口口口 |----|
44
口口口口 |①---|
①②③④ |②---|
口口口口 |③---|
口口口口 |④---|
45
②口口③ |①---|
口口口口 |--②-|
口口口① |--③-|
口口口口 |----|
46
口口口口 |①---|
口口口口 |②---|
①②③④ |③---|
口口口口 |④---|
47
口②②口 |①---|
口①①口 |----|
口口口口 |②---|
口口口口 |----|
48
①口口② |①---|
口口口口 |②---|
口③口口 |----|
口口口口 |③---|
49
口口口口 |①---|
②口口③ |--②-|
口口①口 |--③-|
口口口口 |----|
50
口口口口 |①---|
口③③口 |--②-|
口②②口 |----|
口①①口 |③---|
51
③①①③ |--①-|
②口口② |----|
口口口口 |②---|
口口口口 |③---|
52
口口口口 |----|
口口口口 |----|
口口口口 |----|
口口口口 |----|
53
口口口口 |----|
口口口口 |----|
口口口口 |----|
口口口口 |----|
54
口口口口 |----|
口口口口 |----|
口口口口 |----|
口口口口 |----|
55
口口口口 |----|
口口口口 |----|
口口口口 |----|
口口口口 |----|
56
口口口口 |----|
口口口口 |----|
口口口口 |----|
口口口口 |----|
57
口口口口 |----|
口口口口 |----|
口口口口 |----|
口口口口 |----|
58
口口口口 |----|
口口口口 |----|
口口口口 |----|
口口口口 |----|
59
口口口口 |----|
口口口口 |----|
口口口口 |----|
口口口口 |----|
60
口口口口 |①---|
①②口口 |----|
口口口口 |②---|
口口口口 |----|
61
口口口② |①---|
口口①口 |②---|
口口口口 |----|
口口口口 |----|
62
口口口口 |----|
①口口口 |①---|
口②口口 |②---|
口口③口 |③---|
63
口口口口 |①---|
口口口③ |②---|
口口②口 |③---|
口①口口 |----|
64
口①口口 |----|
口口②口 |①---|
口口口③ |②---|
口口口口 |③---|
65
口口口口 |----|
①口口口 |①---|
口②口口 |②---|
口口③口 |③---|
66
口口口口 |----|
口①口口 |①---|
口口①口 |----|
口口口口 |----|
67
①口口② |①---|
口口口口 |--②-|
口口口口 |----|
口口口口 |----|
68
口口口口 |①---|
口①②口 |②---|
口④③口 |③---|
口口口口 |④---|
69
口口口口 |①---|
口①②口 |②---|
口④③口 |③---|
口口口口 |④---|
70
口口口口 |①---|
口①②口 |②---|
口④③口 |③---|
口口口口 |④---|
71
口口口口 |①---|
口①②口 |②---|
口④③口 |③---|
口口口口 |④---|
72
口①①口 |①---|
口口口口 |----|
口口口口 |----|
口口口口 |----|
73
口口口口 |①---|
口①①口 |----|
口口口口 |----|
口口口口 |----|
74
口口口口 |----|
口口口口 |①---|
口①①口 |----|
口口口口 |----|
75
口口口口 |①---|
①②③④ |②---|
口口口口 |③---|
口口口口 |④---|
76
口①①口 |①---|
口口口口 |----|
口口口口 |----|
口口口口 |----|
77
口口口口 |----|
口口口口 |----|
口口口口 |----|
口口口口 |----|
78
口口口口 |①---|
口口口口 |②---|
口口口口 |----|
①口口② |----|
79
①口口② |----|
①口口② |①---|
口口口口 |②---|
口口口口 |----|
80
口口口口 |----|
口口口口 |----|
①口口② |①---|
口口口口 |②---|
81
口①口口 |----|
口①口口 |----|
口口口口 |----|
口口口口 |①---|
82
口口①口 |①---|
口口①口 |----|
口口口口 |----|
口口口口 |----|
83
口口口口 |①---|
口口口口 |②---|
口口口口 |----|
口①②口 |----|
84
口口口口 |----|
①①②② |①---|
口口口口 |②---|
口口口口 |----|
85
口口口口 |----|
口口口口 |----|
口①②口 |①---|
口口口口 |②---|
86
①①口口 |----|
口口口口 |----|
口口口口 |----|
口口口口 |①---|
87
口口①① |①---|
口口口口 |----|
口口口口 |----|
口口口口 |----|
88
口①②口 |①---|
口③④口 |②---|
口口口口 |③---|
口口口口 |④---|
89
口口口口 |①---|
口口口口 |②---|
口①②口 |③---|
口③④口 |④---|
90
口口口口 |①---|
口口口口 |②---|
③口口④ |③---|
①口口② |④---|
91
口①①口 |①---|
口口口口 |----|
口口口口 |----|
口口口口 |----|
92
口口口口 |----|
口口口口 |----|
口口口口 |----|
口口口口 |----|
93
口口口口 |----|
口口口口 |----|
口口口口 |----|
口口口口 |----|
94
口口口口 |①---|
口①①口 |----|
口①①口 |----|
口口口口 |----|


不确定度: 0

最終更新:2012年11月06日 23:00