風になりたい
THE BOOM

EXTREME

Level: 5
BPM: 69-109
Notes: 314

BPM: 88
1
口口口口 |----|
口口口口 |----|
口口口口 |----|
口口口口 |----|

BPM: 94
2
口口口口 |----|
口口口口 |----|
口口口口
口口口口

BPM: 69.5
口口口口
①口口①
①口口① |①---|
口口口口 |----|
3
口口口口 |----|
口口口口 |----|
口口口口
口口口口

BPM: 88
口口口口
口①①口
口口口口 |①---|
②口口② |②---|
4
②②②② |①---|
口口口口 |②---|
口①①口
口口口口

BPM: 103
口口口口
口口口口
口口口口 |----|
口口口口 |----|

BPM: 86
5
①口口① |①---|
口①①口 |----|
口口口口 |----|
口口口口 |----|

BPM: 90
6
口口口口 |①---|
口口口口 |----|
①口口①
口口口口

口口口口
③③口口
口口②② |②---|
口口口口 |③---|

BPM: 94
7
口口口口 |①---|
口②②口 |②---|
③口口③ |③---|
①④④① |④---|

BPM: 92
8
①口口① |①---|
口②③口 |----|
口②③口 |②---|
口口口口 |③---|

BPM: 90
9
①口③② |①---|
①口口② |----|
②③口① |②---|
②口口① |③---|
10
①口口② |①---|
③口口④ |②---|
③口口④ |③---|
①口口② |④---|

BPM: 107
11
②口口③ |①---|
口①①口 |----|
口①①口 |②---|
③口口② |③---|

BPM: 109
12
③口口② |①---|
口①①口 |----|
口①①口 |②---|
②口口口

BPM: 105
口口口口
口口口口
口口口口
口口口③ |③---|

BPM: 106.5
13
口口口口 |①---|
口①口口 |②---|
口口②口 |③---|
④口口③ |④---|

BPM: 106
14
口口口口 |①---|
口①②口 |②---|
口④③口 |③---|
口口口口 |④---|
15
①口口口 |①---|
口②口口 |②---|
口口③口 |③---|
口口口④ |④---|
16
口口口① |①---|
口口②口 |②---|
口③口口 |③---|
④口口口 |④---|
17
①口口口 |①---|
②口口口 |②---|
③口口口 |③---|
④口口口 |④---|

BPM: 105
18
口口口① |①---|
口口口② |②---|
口口口③ |③---|
口口口④ |④---|

BPM: 106
19
口口②口 |①---|
口口口口 |②---|
口口口口
①口②口

口③口口
口口口口
口口口口 |③---|
④③口④ |④---|
20
①口口① |①---|
口口口口 |②---|
口②②口
口口口口

口口口④
口③③口
口口口口 |③---|
④口口口 |④---|
21
①口口口 |①---|
口口②口 |②---|
口②口口
口口口①

④口口口
口③口口
口口③口 |③---|
口口口④ |④---|
22
口②口① |①---|
②口③口 |②---|
口口④③ |③---|
①④口口 |④---|
23
①①①① |①---|
②②③③ |②---|
②②③③ |③---|
口口④④ |④---|
24
①①②② |①---|
③③口口 |②---|
③③口口 |③---|
口口④④ |④---|
25
口④口① |①---|
④口②③ |②---|
口口①③ |③---|
口②口口 |④---|
26
④口①① |①---|
口口口口 |②---|
②②②② |③---|
①①口③ |④---|
27
口口口口 |①---|
①口口① |②---|
①口口①
②口口②

③口口③
口④④口
④口口④ |③---|
口口口口 |④---|
28
口口口口 |①---|
①口口① |②---|
口①①口
②口口②

口口口口
口③③口
口④④口 |③---|
口口口口 |④---|
29
口①②口 |①---|
③口口④ |②---|
④口口③ |③---|
口②①口 |④---|
30
①②③④ |--①-②-|
口口⑥⑤ |③-④-⑤-|
口口⑥⑤ |⑥---|
①②③④ |----|
31
①口口口 |①---|
②口口口 |②-③-|
口口③口
口口口口

口口口口
⑥口口口
④口口口 |④---|
⑤口口口 |⑤-⑥-|
32
①口口口 |①---|
口口口口 |②-③-|
②③口口
口口口口

⑤口口口
④口⑥口
口口口口 |④---|
口口口口 |⑤-⑥-|
33
口口⑤③ |①---|
口①口口 |②-③-|
④口⑥② |④---|
口口口口 |⑤-⑥-|
34
口口③口 |①---|
口口①口 |②-③-|
口②口口
口口口口

口口口口
口⑤⑥口
口口口口 |④---|
口口④口 |⑤-⑥-|
35
②口⑤③ |①---|
口口口口 |②-③-|
④口⑥口 |④---|
口口口① |⑤-⑥-|
36
口口口口 |①---|
②⑤口③ |②-③-|
口口④⑥ |④---|
口口口① |⑤-⑥-|
37
口口③口 |①---|
口口①⑥ |②-③-|
口⑤②口 |④---|
口④口口 |⑤-⑥-|
38
口⑥②口 |①---|
口口口④ |②-③-|
①口口③ |④---|
口口⑤口 |⑤-⑥-|
39
口口⑥④ |①---|
②口口④ |②-③-|
口口⑤③ |④---|
①口口① |⑤-⑥-|
40
口口口口 |①---|
③①①口 |②-③-|
口口口②
口口口口

口口口口
口⑥口口
口口⑤口 |④---|
口口④④ |⑤-⑥-|
41
口③①口 |①---|
口口口口 |②-③-|
口①口口
口口②口

口口口口
口④口口
口口⑤④ |④---|
口口⑥口 |⑤-⑥-|
42
口口④口 |①---|
①⑥②口 |②-③-|
①口口口 |④---|
⑤③口口 |⑤-⑥-|
43
口口口口 |①---|
⑥口③④ |②-③-|
②口①① |④---|
④口口⑤ |⑤-⑥-|
44
③①①③ |①---|
口②②口 |②---|
口①①口 |③---|
④②②④ |④---|
45
口①①口 |①---|
口口口口 |----|
口口口口 |----|
口①①口 |----|


不确定度: 0

最終更新:2012年11月27日 00:44